VERSION	0.00.00	1.03.00
FES_MODE	0
BPM_DEF	128.000	128.000	128.000	128.000
MET_DEF	4	4
RESOLUTION	384
CLK_DEF	384
COMPATIBLE_CODE	MA2

BPM	0	0	128.000
MET	0	0	4	4

HLD	3	0	5	384
HLD	4	0	4	384
HLD	5	0	3	384
TAP	6	0	2
TAP	6	192	2
TAP	6	192	3
HLD	7	0	1	384
HLD	8	0	0	384
HLD	9	0	7	384
TAP	10	0	6
TAP	10	192	0
TAP	10	192	7
STR	11	0	6
SXL	11	0	6	96	480	3
STR	13	0	2
SXL	13	0	2	96	480	7
TAP	15	0	6
TAP	15	96	6
TAP	15	192	7
TAP	15	288	7
TAP	16	0	0
TAP	16	96	0
TAP	16	192	1
TAP	16	192	7
TAP	17	0	2
TAP	17	96	2
TAP	17	192	3
TAP	17	288	3
TAP	18	0	4
TAP	18	96	4
TAP	18	192	3
TAP	18	192	5
STR	19	0	6
SUL	19	0	6	96	144	2
STR	20	0	1
SCR	20	0	1	96	144	4
STR	21	0	5
SCR	21	0	5	96	144	0
TAP	22	0	1
TAP	22	96	1
TAP	22	192	0
TAP	22	192	7
STR	23	0	6
SCL	23	0	6	96	144	3
STR	24	0	2
SCL	24	0	2	96	144	7
STR	25	0	6
SXR	25	0	6	96	384	3
XTP	26	288	3
XTP	26	288	4
TAP	27	0	5
TAP	27	96	5
TAP	27	192	4
TAP	27	192	5
TAP	28	0	2
TAP	28	96	2
TAP	28	192	2
TAP	28	192	3
TAP	29	0	5
TAP	29	96	5
TAP	29	192	4
TAP	29	192	5
TAP	30	0	3
TAP	30	96	3
TAP	30	192	2
TAP	30	192	4
TAP	31	0	1
TAP	31	96	1
TAP	31	192	0
TAP	31	192	1
TAP	32	0	6
TAP	32	96	6
TAP	32	192	6
TAP	32	192	7
TAP	33	0	0
TAP	33	96	0
TAP	33	192	7
TAP	33	288	7
TAP	34	0	0
TAP	34	0	7
TAP	34	96	0
TAP	34	96	7
TAP	34	192	1
TAP	34	192	6
TTP	35	0	6	B	0	L1
TTP	35	0	7	E	0	L1
TTP	35	192	4	B	0	L1
TTP	35	192	5	E	0	L1
TTP	36	0	2	B	0	L1
TTP	36	0	3	E	0	L1
TTP	36	192	0	B	0	L1
TTP	36	192	1	E	0	L1
TTP	37	0	6	E	0	L1
TTP	37	96	5	B	0	L1
TTP	37	192	4	B	0	L1
TTP	38	0	2	E	0	L1
TTP	38	96	2	B	0	L1
TTP	38	192	3	B	0	L1
TTP	39	0	5	B	0	L1
TTP	39	0	5	E	0	L1
TTP	39	192	7	B	0	L1
TTP	39	192	7	E	0	L1
TTP	40	0	1	B	0	L1
TTP	40	0	1	E	0	L1
TTP	40	192	3	B	0	L1
TTP	40	192	3	E	0	L1
TTP	41	0	5	B	0	L1
TTP	41	96	4	B	0	L1
TTP	41	192	3	B	0	L1
TTP	41	288	2	B	0	L1
TTP	42	0	0	C	0	L1
XTP	42	288	0
XTP	42	288	7
BRK	43	0	6
TAP	43	96	6
TAP	43	192	6
TAP	43	192	7
TAP	43	288	6
TAP	43	288	7
TAP	44	0	5
TAP	44	96	4
TAP	44	192	3
TAP	44	192	5
HLD	45	0	2	96
TAP	45	96	3
TAP	45	192	2
TAP	45	192	3
HLD	46	0	4	96
TAP	46	96	3
TAP	46	192	2
TAP	46	192	5
BRK	47	0	1
TAP	47	96	1
TAP	47	192	0
TAP	47	192	1
TAP	47	288	0
TAP	47	288	1
TAP	48	0	2
TAP	48	96	3
TAP	48	192	2
TAP	48	192	4
HLD	49	0	5	96
TAP	49	96	4
TAP	49	192	4
TAP	49	192	5
TAP	50	0	3
TAP	50	0	4
TAP	50	96	3
TAP	50	96	4
TAP	50	192	2
TAP	50	192	5
BRK	51	0	6
TAP	51	96	6
TAP	51	96	7
TAP	51	192	6
TAP	51	288	6
TAP	51	288	7
TAP	52	0	5
TAP	52	96	4
TAP	52	192	3
TAP	52	192	5
HLD	53	0	2	96
TAP	53	96	3
TAP	53	192	1
TAP	53	192	4
HLD	54	0	4	96
TAP	54	96	3
TAP	54	192	2
TAP	54	192	5
BRK	55	0	1
TAP	55	96	0
TAP	55	96	1
TAP	55	192	1
TAP	55	288	0
TAP	55	288	1
TAP	56	0	2
TAP	56	96	3
TAP	56	192	2
TAP	56	192	4
HLD	57	0	5	96
TAP	57	96	4
TAP	57	192	3
TAP	57	192	6
TAP	58	0	3
TAP	58	0	4
TAP	58	96	3
TAP	58	96	4
TAP	58	192	2
TAP	58	192	5
STR	59	0	6
SUL	59	0	6	96	144	2
STR	60	0	1
SUR	60	0	1	96	144	5
TTP	61	0	7	E	0	L1
TTP	61	96	6	E	0	L1
TTP	61	192	5	E	0	L1
TTP	61	288	4	E	0	L1
TTP	62	0	3	E	0	L1
TTP	62	96	2	E	0	L1
TTP	62	192	1	E	0	L1
XST	63	0	1
SUR	63	0	1	96	144	5
STR	64	0	6
SUL	64	0	6	96	144	2
TTP	65	0	1	E	0	L1
TTP	65	96	2	E	0	L1
TTP	65	192	3	E	0	L1
TTP	65	288	4	E	0	L1
THO	66	0	0	192	C	0	L1

T_REC_TAP	126
T_REC_BRK	4
T_REC_XTP	4
T_REC_HLD	12
T_REC_XHO	0
T_REC_STR	11
T_REC_BST	0
T_REC_XST	1
T_REC_TTP	38
T_REC_THO	1
T_REC_SLD	12
T_REC_ALL	209
T_NUM_TAP	180
T_NUM_BRK	4
T_NUM_HLD	13
T_NUM_SLD	12
T_NUM_ALL	209
T_JUDGE_TAP	184
T_JUDGE_HLD	64
T_JUDGE_SLD	12
T_JUDGE_ALL	260
TTM_EACHPAIRS	40
TTM_SCR_TAP	90000
TTM_SCR_BRK	10400
TTM_SCR_HLD	13000
TTM_SCR_SLD	18000
TTM_SCR_ALL	131400
TTM_SCR_S	127100
TTM_SCR_SS	131000
TTM_RAT_ACV	10030

