VERSION	0.00.00	1.03.00
FES_MODE	0
BPM_DEF	175.000	175.000	175.000	175.000
MET_DEF	4	4
RESOLUTION	384
CLK_DEF	384
COMPATIBLE_CODE	MA2

BPM	0	0	175.000
MET	0	0	4	4

XST	1	264	0
SCR	1	264	0	96	1368	7
THO	2	0	0	2880	C	1	M1
STR	6	0	7
SCL	6	0	7	96	576	0
STR	8	0	0
SLR	8	0	0	96	192	5
STR	9	0	5
SUL	9	0	5	96	96	1
TAP	10	0	2
TAP	10	0	6
TAP	10	96	4
HLD	10	144	5	144
TAP	10	240	6
TAP	10	288	7
TAP	11	0	1
TAP	11	0	5
TAP	11	96	3
HLD	11	144	2	144
TAP	11	240	1
TAP	11	288	0
TAP	12	0	2
TAP	12	0	6
TAP	12	96	4
HLD	12	144	5	192
TAP	12	240	6
TAP	12	288	7
STR	12	336	0
SCR	12	336	0	96	240	7
TTP	13	48	5	B	0	M1
TTP	13	96	2	B	0	M1
STR	13	192	7
SI_	13	192	7	96	48	3
TAP	14	0	2
TAP	14	0	4
TAP	14	96	3
HLD	14	144	2	144
TAP	14	240	1
TAP	14	288	0
TAP	15	0	2
TAP	15	0	6
TAP	15	96	4
HLD	15	144	5	144
TAP	15	240	6
TAP	15	288	7
HLD	16	0	1	144
TAP	16	0	4
TAP	16	96	3
TAP	16	144	2
TAP	16	192	1
TAP	16	240	0
STR	16	336	6
SI_	16	336	6	96	96	3
STR	17	48	3
SUR	17	48	3	96	96	0
TAP	17	144	2
TAP	17	192	2
TAP	17	288	1
TAP	17	288	7
TAP	18	0	3
STR	18	0	5
SXR	18	0	5	96	192	6
TAP	18	96	0
TAP	18	144	7
TAP	18	240	0
TAP	18	288	1
STR	19	0	2
SXL	19	0	2	96	192	1
TAP	19	0	4
TAP	19	96	7
TAP	19	144	0
TAP	19	240	7
TAP	19	288	6
TAP	20	0	0
STR	20	0	6
SXL	20	0	6	96	192	5
TAP	20	96	3
TAP	20	144	4
TAP	20	240	3
TAP	20	288	2
STR	21	0	1
SUL	21	0	1	96	96	3
STR	21	48	0
SUR	21	48	0	96	96	6
TAP	21	240	2
TAP	21	288	7
TAP	22	0	0
STR	22	0	6
SXL	22	0	6	96	192	5
TAP	22	96	3
TAP	22	144	4
TAP	22	240	3
TAP	22	288	2
STR	23	0	1
SLL	23	0	1	96	144	3
TAP	23	0	7
TAP	23	96	5
TAP	23	144	6
TAP	23	240	5
TAP	23	288	1
TAP	23	288	4
TAP	24	0	2
TAP	24	24	3
TAP	24	72	3
TAP	24	96	4
TAP	24	144	4
TAP	24	168	5
TAP	24	216	5
TAP	24	240	6
TAP	24	288	5
TAP	24	288	7
TAP	24	336	0
TAP	24	336	6
XHO	25	0	1	72
XTP	25	0	7
TAP	25	72	3
TAP	25	96	2
XTP	25	144	3
XHO	25	144	6	72
TAP	25	216	4
TAP	25	240	5
BRK	25	288	0
BRK	25	288	4
STR	26	0	1
SCR	26	0	1	96	48	4
STR	26	0	7
SCL	26	0	7	96	48	4
TAP	26	96	1
TAP	26	96	7
STR	26	192	1
SI_	26	192	1	96	48	5
STR	26	192	7
SI_	26	192	7	96	48	3
STR	26	288	1
SCR	26	288	1	96	192	0
STR	26	288	7
SCL	26	288	7	96	192	0
XTP	27	0	1
XTP	27	0	7
TAP	27	288	2
TAP	27	288	4
TAP	27	336	1
TAP	27	336	5
STR	28	0	0
SCR	28	0	0	96	48	3
STR	28	0	6
SCL	28	0	6	96	48	3
TAP	28	96	0
TAP	28	96	6
STR	28	192	0
SI_	28	192	0	96	48	4
STR	28	192	6
SI_	28	192	6	96	48	2
TAP	28	288	0
TAP	28	288	6
STR	29	0	6
SCR	29	0	6	96	96	1
STR	29	96	1
SI_	29	96	1	96	48	3
STR	29	144	3
SI_	29	144	3	96	48	5
TTP	29	240	5	B	0	M1
TTP	29	288	2	B	0	M1
HLD	30	0	3	96
TAP	30	96	1
STR	30	144	0
SI_	30	144	0	96	48	4
TAP	30	192	7
TAP	30	240	6
TAP	30	288	5
TAP	31	0	3
HLD	31	0	4	96
TAP	31	96	6
STR	31	144	7
SI_	31	144	7	96	48	3
TAP	31	192	0
TAP	31	240	1
TAP	31	288	2
HLD	32	0	0	96
TAP	32	0	7
TAP	32	96	2
STR	32	144	3
SI_	32	144	3	96	48	7
TAP	32	192	4
TAP	32	240	5
TAP	32	288	6
TAP	33	0	5
TAP	33	48	4
TAP	33	96	3
TAP	33	144	2
STR	33	192	1
SI_	33	192	1	96	48	4
STR	33	240	4
SI_	33	240	4	96	48	1
STR	33	288	1
SI_	33	288	1	96	48	6
STR	33	336	6
SCL	33	336	6	96	96	1
HLD	34	0	7	96
STR	34	192	6
SI_	34	192	6	96	48	3
STR	34	240	3
SI_	34	240	3	96	48	6
STR	34	288	6
SI_	34	288	6	96	48	1
STR	34	336	1
SCR	34	336	1	96	96	6
HLD	35	0	0	96
STR	35	192	0
SI_	35	192	0	96	48	3
STR	35	240	3
SI_	35	240	3	96	48	0
STR	35	288	0
SI_	35	288	0	96	48	5
STR	35	336	5
SCL	35	336	5	96	96	0
HLD	36	0	6	96
STR	36	192	7
SI_	36	192	7	96	48	4
STR	36	240	4
SI_	36	240	4	96	48	7
STR	36	288	7
SI_	36	288	7	96	48	2
STR	36	336	2
SCR	36	336	2	96	96	7
HLD	37	0	1	96
TAP	37	192	0
TAP	37	192	2
TAP	37	240	0
TAP	37	240	2
TAP	37	336	0
TAP	37	336	6
STR	38	0	0
SI_	38	0	0	96	48	4
TAP	38	0	6
STR	38	96	7
SI_	38	96	7	96	48	3
STR	38	192	6
SI_	38	192	6	96	48	2
STR	38	288	5
SI_	38	288	5	96	48	1
STR	39	0	4
SI_	39	0	4	96	48	0
STR	39	96	3
SI_	39	96	3	96	48	7
STR	39	192	2
SCR	39	192	2	96	48	5
XTP	39	288	7
TAP	40	0	6
TAP	40	24	4
TAP	40	48	6
TAP	40	96	1
TAP	40	120	3
TAP	40	144	1
TAP	40	192	7
TAP	40	216	5
TAP	40	240	7
TAP	40	288	0
TAP	40	312	2
TAP	40	336	0
TAP	41	0	6
TAP	41	48	7
TAP	41	96	0
TAP	41	144	1
XTP	41	192	2
XTP	41	192	6
XTP	41	240	3
XTP	41	240	7
XTP	41	288	2
XTP	41	288	6
XTP	41	336	1
XTP	41	336	5
XHO	42	0	2	672
BRK	42	0	6
TAP	42	192	3
TAP	42	240	3
TAP	42	336	1
TAP	43	0	1
TAP	43	96	4
TAP	43	144	4
TAP	43	240	0
XTP	43	288	0
XTP	44	0	4
XTP	44	0	5
TAP	44	48	4
HLD	44	48	5	576
TAP	44	144	6
TAP	44	192	6
TAP	44	288	3
TAP	44	336	3
TAP	45	48	7
TAP	45	96	7
TAP	45	192	2
TAP	45	240	2
TAP	45	336	0
TAP	45	336	7
STR	46	0	6
SI_	46	0	6	96	48	2
TAP	46	48	7
TAP	46	96	0
STR	46	144	1
SI_	46	144	1	96	48	5
TAP	46	192	0
TAP	46	240	7
TAP	46	288	6
TAP	46	336	3
STR	47	0	2
SI_	47	0	2	96	48	6
TAP	47	48	3
TAP	47	96	4
STR	47	144	5
SI_	47	144	5	96	48	1
TAP	47	192	4
TAP	47	240	3
TAP	47	288	2
TAP	47	336	3
XTP	48	0	1
XTP	48	0	4
TAP	48	48	6
TAP	48	72	3
TAP	48	96	6
TAP	48	144	1
TAP	48	168	4
TAP	48	192	1
TAP	48	240	6
TAP	48	264	3
TAP	48	288	6
TAP	48	336	1
TAP	48	336	7
XST	49	0	0
SI_	49	0	0	96	48	2
XST	49	48	0
SI_	49	48	0	96	48	6
XST	49	96	0
SI_	49	96	0	96	48	3
XST	49	144	0
SI_	49	144	0	96	48	5
XST	49	192	0
SI_	49	192	0	96	48	4
XST	50	0	6
SUL	50	0	6	96	1248	5
STR	52	336	2
SCL	52	336	2	96	144	5
XST	54	0	1
SUR	54	0	1	96	1248	2
TAP	56	192	4
TAP	56	240	4
STR	56	336	5
SCR	56	336	5	96	144	2
TAP	57	288	1
TAP	57	288	4
HLD	58	0	5	96
TAP	58	72	4
HLD	58	96	4	96
TAP	58	168	3
HLD	58	192	3	96
TAP	58	264	2
TAP	58	288	2
HLD	59	0	2	96
TAP	59	72	3
HLD	59	96	3	96
TAP	59	168	4
HLD	59	192	4	96
TAP	59	264	5
TAP	59	288	5
HLD	60	0	6	96
TAP	60	72	5
HLD	60	96	5	96
TAP	60	168	4
HLD	60	192	4	96
TAP	60	264	3
TAP	60	288	3
HLD	61	0	1	96
TAP	61	72	2
HLD	61	96	2	96
TAP	61	168	3
HLD	61	192	3	96
TAP	61	264	4
TAP	61	288	4
HLD	62	0	6	96
TAP	62	72	4
HLD	62	96	4	96
TAP	62	168	3
HLD	62	192	3	96
TAP	62	264	1
TAP	62	288	1
HLD	63	0	1	96
TAP	63	72	3
HLD	63	96	3	96
TAP	63	168	4
HLD	63	192	4	96
TAP	63	264	6
TAP	63	288	6
TAP	64	0	5
TAP	64	24	4
TAP	64	72	1
TAP	64	96	0
TAP	64	144	2
TAP	64	168	3
TAP	64	216	6
TAP	64	240	7
TAP	64	288	2
TAP	64	288	5
TAP	64	336	1
TAP	64	336	4
TAP	65	0	0
TAP	65	48	7
TAP	65	96	6
TAP	65	144	5
XTP	65	192	2
XTP	65	192	6
XTP	65	240	3
XTP	65	240	7
XTP	65	288	2
XTP	65	288	6
XTP	65	336	1
XTP	65	336	5
BRK	66	0	2
BRK	66	0	6
STR	66	48	1
SI_	66	48	1	96	48	5
STR	66	96	5
SI_	66	96	5	96	48	1
TAP	66	192	7
STR	66	240	6
SLR	66	240	6	96	96	2
STR	66	336	2
SLR	66	336	2	96	96	6
TAP	67	48	6
STR	67	144	0
SI_	67	144	0	96	48	2
STR	67	192	0
SI_	67	192	0	96	48	6
STR	67	240	0
SI_	67	240	0	96	48	4
TAP	68	0	5
STR	68	48	6
SI_	68	48	6	96	48	2
STR	68	96	2
SI_	68	96	2	96	48	6
TAP	68	192	0
STR	68	240	1
SLL	68	240	1	96	96	5
STR	68	336	5
SLL	68	336	5	96	96	1
TAP	69	48	1
STR	69	144	7
SI_	69	144	7	96	48	5
STR	69	192	7
SI_	69	192	7	96	48	1
STR	69	240	7
SI_	69	240	7	96	48	3
TAP	70	0	2
TAP	70	48	1
TAP	70	96	0
STR	70	144	7
SCR	70	144	7	96	48	2
TAP	70	192	6
TAP	70	240	5
STR	70	288	4
SI_	70	288	4	96	48	7
STR	71	0	0
SI_	71	0	0	96	48	3
STR	71	96	0
SI_	71	96	0	96	48	4
TAP	71	96	6
STR	71	192	0
SCR	71	192	0	96	48	3
TAP	71	192	1
TAP	71	288	0
TAP	71	288	5
STR	72	0	7
SCR	72	0	7	96	48	2
TAP	72	48	6
TAP	72	96	5
STR	72	144	4
SCR	72	144	4	96	48	7
TAP	72	192	3
TAP	72	240	2
STR	72	288	1
SCR	72	288	1	96	48	4
TAP	72	336	0
TAP	73	0	7
TAP	73	48	6
STR	73	144	1
SI_	73	144	1	96	48	6
STR	73	144	5
SI_	73	144	5	96	48	2
STR	73	192	2
SCR	73	192	2	96	48	5
STR	73	192	6
SCR	73	192	6	96	48	1
XTP	74	0	2
XTP	74	0	6
STR	74	48	1
SUL	74	48	1	96	48	5
STR	74	96	5
SUL	74	96	5	96	48	1
TAP	74	192	7
STR	74	240	6
SLR	74	240	6	96	96	2
STR	74	336	2
SLR	74	336	2	96	96	6
TAP	75	48	6
STR	75	144	0
SCR	75	144	0	96	48	2
STR	75	192	0
SCL	75	192	0	96	48	6
STR	75	240	0
SI_	75	240	0	96	48	4
TAP	76	0	5
STR	76	48	6
SUR	76	48	6	96	48	2
STR	76	96	2
SUR	76	96	2	96	48	6
TAP	76	192	0
STR	76	240	1
SLL	76	240	1	96	96	5
STR	76	336	5
SLL	76	336	5	96	96	1
TAP	77	48	1
STR	77	144	7
SCL	77	144	7	96	48	5
STR	77	192	7
SCR	77	192	7	96	48	1
STR	77	240	7
SI_	77	240	7	96	48	3
STR	78	0	0
SI_	78	0	0	96	48	4
TAP	78	48	0
STR	78	96	6
SI_	78	96	6	96	48	2
TAP	78	144	6
STR	78	192	1
SI_	78	192	1	96	48	5
TAP	78	240	1
STR	78	288	7
SI_	78	288	7	96	48	3
TAP	78	336	7
STR	79	0	2
SI_	79	0	2	96	48	6
TAP	79	48	2
STR	79	96	4
SI_	79	96	4	96	48	0
TAP	79	144	4
TAP	79	192	3
TAP	79	240	3
BRK	79	288	1
BRK	79	288	7
TAP	80	0	2
TAP	80	0	4
TAP	80	48	6
TAP	80	72	4
TAP	80	96	6
TAP	80	144	1
TAP	80	168	3
TAP	80	192	1
TAP	80	240	7
TAP	80	264	5
TAP	80	288	7
TAP	80	336	0
TAP	80	360	2
TAP	81	0	0
TAP	81	48	1
TAP	81	48	5
STR	81	144	4
SCL	81	144	4	96	48	7
STR	81	144	7
SI_	81	144	7	96	48	4
BRK	82	0	1
BRK	82	0	5
STR	82	96	3
SI_	82	96	3	96	48	1
TAP	82	96	7
TAP	82	192	3
STR	82	240	7
SI_	82	240	7	96	48	5
TAP	82	336	7
STR	83	0	2
SI_	83	0	2	96	48	0
TAP	83	96	2
STR	83	144	6
SI_	83	144	6	96	48	4
TAP	83	240	6
XST	83	288	1
SI_	83	288	1	96	48	7
XTP	84	0	1
STR	84	48	5
SI_	84	48	5	96	48	3
TAP	84	144	5
STR	84	192	0
SI_	84	192	0	96	48	6
TAP	84	288	0
STR	84	336	4
SI_	84	336	4	96	48	2
TAP	85	48	4
STR	85	96	7
SI_	85	96	7	96	48	2
TAP	85	192	7
STR	85	240	3
SI_	85	240	3	96	48	6
TAP	85	336	3
XST	86	0	0
SI_	86	0	0	96	48	4
TAP	86	48	0
STR	86	96	7
SI_	86	96	7	96	48	3
TAP	86	144	7
STR	86	192	6
SI_	86	192	6	96	48	2
TAP	86	240	6
STR	86	288	5
SI_	86	288	5	96	48	1
TAP	86	336	5
STR	87	0	4
SI_	87	0	4	96	48	0
TAP	87	48	4
STR	87	96	3
SI_	87	96	3	96	48	7
TAP	87	144	3
STR	87	192	2
SCR	87	192	2	96	48	5
TAP	87	240	2
XTP	87	288	7
TAP	88	0	3
TAP	88	0	6
TAP	88	48	2
TAP	88	72	7
TAP	88	96	2
TAP	88	144	5
TAP	88	168	0
TAP	88	192	5
TAP	88	240	2
TAP	88	264	7
TAP	88	288	2
TAP	88	336	3
TAP	88	336	5
XST	89	0	4
SI_	89	0	4	96	48	6
XST	89	48	4
SI_	89	48	4	96	48	2
XST	89	96	4
SI_	89	96	4	96	48	7
XST	89	144	4
SI_	89	144	4	96	48	1
XST	89	192	4
SI_	89	192	4	96	48	0
BRK	90	0	2
BRK	90	0	6

T_REC_TAP	294
T_REC_BRK	11
T_REC_XTP	30
T_REC_HLD	32
T_REC_XHO	3
T_REC_STR	122
T_REC_BST	0
T_REC_XST	15
T_REC_TTP	4
T_REC_THO	1
T_REC_SLD	137
T_REC_ALL	649
T_NUM_TAP	465
T_NUM_BRK	11
T_NUM_HLD	36
T_NUM_SLD	137
T_NUM_ALL	649
T_JUDGE_TAP	476
T_JUDGE_HLD	159
T_JUDGE_SLD	137
T_JUDGE_ALL	772
TTM_EACHPAIRS	68
TTM_SCR_TAP	232500
TTM_SCR_BRK	28600
TTM_SCR_HLD	36000
TTM_SCR_SLD	205500
TTM_SCR_ALL	502600
TTM_SCR_S	486500
TTM_SCR_SS	501500
TTM_RAT_ACV	10021

