VERSION	0.00.00	1.03.00
FES_MODE	0
BPM_DEF	175.000	175.000	175.000	175.000
MET_DEF	4	4
RESOLUTION	384
CLK_DEF	384
COMPATIBLE_CODE	MA2

BPM	0	0	175.000
MET	0	0	4	4

THO	2	0	0	1344	C	0	M1
TTP	2	0	3	B	0	M1
TTP	2	0	4	B	0	M1
TAP	6	0	7
TAP	6	96	6
TAP	6	192	4
TAP	6	192	5
TAP	6	288	3
TAP	7	0	2
TAP	7	96	0
TAP	7	96	1
TAP	7	192	7
TAP	7	288	6
TAP	8	0	3
TAP	8	0	5
TAP	8	96	4
TAP	8	144	4
TAP	8	192	4
TAP	8	288	3
TAP	8	336	3
TAP	9	0	3
STR	9	96	2
SI_	9	96	2	96	48	7
TAP	9	96	4
BRK	9	192	6
TAP	10	0	0
HLD	10	0	6	144
TAP	10	96	4
HLD	10	144	4	144
TAP	10	240	2
TAP	10	288	2
HLD	11	0	1	144
TAP	11	0	7
TAP	11	96	3
HLD	11	144	3	144
TAP	11	240	5
TAP	11	288	5
TAP	12	0	0
HLD	12	0	6	144
TAP	12	96	4
HLD	12	144	4	96
TAP	12	240	2
STR	12	288	2
SI_	12	288	2	96	48	6
STR	13	0	0
SCR	13	0	0	96	168	7
HLD	14	0	1	144
TAP	14	0	7
TAP	14	96	3
HLD	14	144	3	144
TAP	14	240	5
TAP	14	288	5
TAP	15	0	0
HLD	15	0	6	144
TAP	15	96	4
HLD	15	144	4	144
TAP	15	240	2
TAP	15	288	2
HLD	16	0	1	144
TAP	16	0	7
TAP	16	96	3
HLD	16	144	3	96
TAP	16	240	5
STR	16	288	5
SI_	16	288	5	96	48	1
STR	17	0	7
SCL	17	0	7	96	168	0
HLD	18	0	6	96
TAP	18	96	7
HLD	18	144	5	96
TAP	18	144	7
TAP	18	240	4
TAP	18	288	3
TAP	18	288	5
HLD	19	0	1	96
TAP	19	96	0
TAP	19	144	0
HLD	19	144	2	96
TAP	19	240	3
TAP	19	288	2
TAP	19	288	4
HLD	20	0	6	96
TAP	20	96	7
HLD	20	144	5	96
TAP	20	144	7
TAP	20	240	4
STR	20	288	3
SLR	20	288	3	96	144	1
TAP	20	288	5
TAP	21	0	7
TAP	21	288	2
TAP	21	288	5
HLD	22	0	1	96
TAP	22	96	0
TAP	22	144	0
HLD	22	144	2	96
TAP	22	240	3
TAP	22	288	2
TAP	22	288	4
HLD	23	0	6	96
TAP	23	96	7
HLD	23	144	5	96
TAP	23	144	7
TAP	23	240	4
TAP	23	288	3
TAP	23	288	5
TAP	24	0	1
TAP	24	0	4
TAP	24	48	1
TAP	24	48	4
TAP	24	96	1
TAP	24	96	4
TAP	24	192	3
TAP	24	192	6
TAP	24	240	3
TAP	24	240	6
TAP	24	288	3
TAP	24	288	6
TTP	25	0	0	C	1	M1
TTP	25	0	1	B	0	M1
TTP	25	0	2	B	0	M1
TTP	25	0	5	B	0	M1
TTP	25	0	6	B	0	M1
TAP	25	288	0
TAP	25	288	7
STR	26	0	2
SI_	26	0	2	96	48	7
STR	26	96	6
SI_	26	96	6	96	48	3
TAP	26	192	0
STR	26	288	1
SXR	26	288	1	96	192	4
HLD	27	0	5	192
XTP	27	288	3
XTP	27	288	5
STR	28	0	6
SI_	28	0	6	96	48	1
STR	28	96	2
SI_	28	96	2	96	48	5
STR	28	192	0
SI_	28	192	0	96	48	4
TAP	28	288	3
TAP	29	0	2
TAP	29	0	5
TAP	29	96	1
HLD	29	144	1	144
STR	29	288	3
SCR	29	288	3	96	144	1
BRK	30	0	1
TAP	30	192	2
STR	30	288	3
SI_	30	288	3	96	72	0
TAP	30	288	4
TAP	31	0	5
XTP	31	144	6
XTP	31	144	7
XTP	31	192	6
XTP	31	192	7
XTP	31	288	3
XTP	31	288	4
XTP	31	336	3
XTP	31	336	4
XTP	32	48	2
XTP	32	48	5
XST	32	96	2
SLR	32	96	2	96	120	7
XST	32	96	5
SLL	32	96	5	96	120	0
TAP	33	0	1
TAP	33	0	6
TAP	33	96	3
TAP	33	96	4
TAP	33	192	6
TAP	33	240	6
HLD	33	288	4	96
TTP	34	0	6	B	0	M1
TTP	34	0	7	E	0	M1
TTP	34	96	4	B	0	M1
TTP	34	96	5	E	0	M1
TAP	34	192	1
TAP	34	240	1
HLD	34	288	3	96
TTP	35	0	1	B	0	M1
TTP	35	0	1	E	0	M1
TTP	35	96	3	B	0	M1
TTP	35	96	3	E	0	M1
TAP	35	192	6
TAP	35	240	6
HLD	35	288	4	96
TTP	36	0	3	B	0	M1
TTP	36	0	4	E	0	M1
TTP	36	96	6	B	0	M1
TTP	36	96	7	E	0	M1
TAP	36	192	1
TAP	36	240	1
HLD	36	288	3	96
TTP	37	0	4	B	0	M1
TTP	37	0	4	E	0	M1
TTP	37	96	1	B	0	M1
TTP	37	96	1	E	0	M1
TAP	37	192	0
TAP	37	192	7
TAP	37	288	2
TAP	37	288	5
XHO	38	0	3	48
XHO	38	0	4	48
HLD	38	96	4	48
HLD	38	96	5	48
HLD	38	192	5	48
HLD	38	192	6	48
HLD	38	288	6	48
HLD	38	288	7	48
XHO	39	0	0	48
XHO	39	0	7	48
HLD	39	96	0	48
HLD	39	96	1	48
HLD	39	192	1	48
HLD	39	192	2	48
TAP	39	288	2
TAP	39	288	3
TAP	40	0	4
TAP	40	24	3
TAP	40	48	4
TAP	40	72	3
TAP	40	96	4
TAP	40	120	3
TAP	40	144	4
TAP	40	168	3
TAP	40	192	4
TAP	40	216	3
TAP	40	240	4
TAP	40	264	3
TAP	40	288	4
TAP	40	312	3
TAP	40	336	4
TAP	40	360	3
STR	41	0	4
SXL	41	0	4	96	192	0
SXR	41	0	4	96	192	0
BST	42	0	2
SCL	42	0	2	96	480	3
BRK	42	0	6
XTP	43	288	7
XST	44	0	7
SXR	44	0	7	96	384	2
XST	45	288	3
SI_	45	288	3	96	48	0
XTP	45	288	4
BRK	46	0	7
TAP	46	96	5
TAP	46	144	5
TAP	46	240	4
TAP	46	240	6
TAP	46	288	4
STR	46	288	6
SI_	46	288	6	96	48	3
TAP	47	0	0
TAP	47	96	2
TAP	47	144	2
TAP	47	240	1
TAP	47	240	4
TAP	47	288	1
TAP	47	288	4
TAP	48	0	3
TAP	48	0	6
TAP	48	48	5
TAP	48	72	4
TAP	48	96	5
TAP	48	144	2
TAP	48	168	3
TAP	48	192	2
TAP	48	240	5
TAP	48	264	4
TAP	48	288	5
TAP	48	336	2
TAP	48	360	3
STR	49	0	2
SCL	49	0	2	96	192	5
TTP	50	0	0	C	1	M1
TTP	50	0	3	B	0	M1
TTP	50	0	4	B	0	M1
XST	51	336	5
SUL	51	336	5	96	288	3
THO	52	336	0	240	C	0	M1
XST	54	0	6
SLL	54	0	6	96	192	2
STR	55	0	1
SLR	55	0	1	96	192	5
STR	56	0	6
SCL	56	0	6	96	240	1
XTP	56	192	1
XTP	57	192	0
XTP	57	192	7
XTP	57	288	2
XTP	57	288	5
HLD	58	0	7	96
HLD	58	96	6	96
HLD	58	192	5	96
HLD	58	288	4	96
TTP	59	0	7	B	0	M1
TTP	59	96	6	B	0	M1
TTP	59	192	5	B	0	M1
TTP	59	288	4	B	0	M1
XHO	60	0	3	96
HLD	60	96	2	96
HLD	60	192	1	96
HLD	60	288	0	96
TTP	61	0	3	B	0	M1
TTP	61	96	2	B	0	M1
TTP	61	192	1	B	0	M1
TTP	61	288	0	B	0	M1
HLD	62	0	6	96
HLD	62	96	4	96
HLD	62	192	3	96
HLD	62	288	1	96
TTP	63	0	0	E	0	M1
TTP	63	0	7	B	0	M1
TTP	63	96	5	B	0	M1
TTP	63	96	6	E	0	M1
TTP	63	192	3	B	0	M1
TTP	63	192	4	E	0	M1
TTP	63	288	1	B	0	M1
TTP	63	288	2	E	0	M1
XST	64	0	7
SUL	64	0	7	96	216	4
SUR	64	0	7	96	216	2
BRK	65	0	1
BRK	65	0	5
XTP	65	288	0
XTP	65	288	7
TAP	66	0	5
TAP	66	48	5
TAP	66	96	4
TAP	66	96	6
TAP	66	192	1
TAP	66	192	3
TAP	66	240	1
STR	66	240	3
SI_	66	240	3	96	48	7
STR	66	336	0
SI_	66	336	0	96	48	2
STR	67	48	6
SI_	67	48	6	96	48	4
TAP	67	144	3
TAP	67	192	3
TAP	67	288	1
TAP	67	288	7
TAP	68	0	2
TAP	68	48	2
TAP	68	96	1
TAP	68	96	3
TAP	68	192	4
TAP	68	192	6
STR	68	240	4
SI_	68	240	4	96	48	0
TAP	68	240	6
STR	68	336	7
SI_	68	336	7	96	48	5
STR	69	48	1
SI_	69	48	1	96	48	3
TAP	69	144	4
TAP	69	192	4
TAP	69	288	0
TAP	69	288	6
TAP	70	0	1
TAP	70	0	5
TAP	70	96	2
TAP	70	96	3
TAP	70	144	1
TAP	70	144	4
TAP	70	240	4
TAP	70	240	5
TAP	70	288	3
STR	70	288	6
SI_	70	288	6	96	48	2
STR	71	0	1
SI_	71	0	1	96	48	5
TAP	71	96	6
TAP	71	192	7
TAP	71	288	6
TAP	71	336	6
TAP	72	0	5
TAP	72	0	7
TAP	72	96	1
TAP	72	144	0
TAP	72	144	2
TAP	72	240	5
TAP	72	288	4
TAP	72	288	6
TAP	73	0	2
TAP	73	48	1
TAP	73	48	3
TAP	73	144	0
TAP	73	144	4
HLD	73	192	0	48
HLD	73	192	4	48
BRK	73	288	2
BRK	73	288	6
TAP	74	0	5
TAP	74	48	5
TAP	74	96	4
TAP	74	96	6
TAP	74	192	1
TAP	74	192	3
TAP	74	240	1
STR	74	240	3
SI_	74	240	3	96	48	7
STR	74	336	0
SI_	74	336	0	96	48	2
STR	75	48	6
SI_	75	48	6	96	48	4
TAP	75	144	3
TAP	75	192	3
TAP	75	288	1
TAP	75	288	7
TAP	76	0	2
TAP	76	48	2
TAP	76	96	1
TAP	76	96	3
TAP	76	192	4
TAP	76	192	6
STR	76	240	4
SI_	76	240	4	96	48	0
TAP	76	240	6
STR	76	336	7
SI_	76	336	7	96	48	5
STR	77	48	1
SI_	77	48	1	96	48	3
TAP	77	144	4
TAP	77	192	4
TAP	77	288	0
TAP	77	288	6
HLD	78	0	6	48
HLD	78	0	7	48
HLD	78	96	5	48
HLD	78	96	6	48
HLD	78	192	4	48
HLD	78	192	5	48
HLD	78	288	3	48
HLD	78	288	4	48
HLD	79	0	2	48
HLD	79	0	3	48
HLD	79	96	1	48
HLD	79	96	2	48
HLD	79	192	0	48
HLD	79	192	1	48
TAP	79	288	0
TAP	79	288	7
TAP	80	0	2
TAP	80	0	5
TAP	80	48	6
TAP	80	72	7
TAP	80	96	6
TAP	80	144	1
TAP	80	168	0
TAP	80	192	1
TAP	80	240	6
TAP	80	264	7
TAP	80	288	6
TAP	80	336	1
TAP	80	360	0
BST	81	0	1
SCR	81	0	1	96	192	6
THO	82	0	0	384	C	0	M1
XTP	83	288	0
XST	84	0	0
SCR	84	0	0	96	384	7
XTP	85	288	1
XTP	85	288	6
HLD	86	0	3	48
HLD	86	0	4	48
HLD	86	96	5	48
HLD	86	96	6	48
HLD	86	192	0	48
HLD	86	192	7	48
HLD	86	288	1	48
HLD	86	288	2	48
HLD	87	0	3	48
HLD	87	0	4	48
HLD	87	96	5	48
HLD	87	96	6	48
HLD	87	192	0	48
HLD	87	192	7	48
TAP	87	288	1
TAP	87	288	6
TAP	88	0	3
TAP	88	0	4
TAP	88	48	5
TAP	88	72	4
TAP	88	96	6
TAP	88	144	2
TAP	88	168	3
TAP	88	192	1
TAP	88	240	5
TAP	88	264	4
TAP	88	288	6
TAP	88	336	2
TAP	88	360	3
HLD	89	0	0	48
STR	89	96	1
SLL	89	96	1	96	144	4
STR	89	96	7
SLR	89	96	7	96	144	4
TTP	90	0	0	C	1	M1
TTP	90	0	2	B	0	M1
TTP	90	0	3	B	0	M1
TTP	90	0	6	B	0	M1
TTP	90	0	7	B	0	M1

T_REC_TAP	249
T_REC_BRK	8
T_REC_XTP	24
T_REC_HLD	80
T_REC_XHO	5
T_REC_STR	35
T_REC_BST	2
T_REC_XST	8
T_REC_TTP	47
T_REC_THO	3
T_REC_SLD	47
T_REC_ALL	508
T_NUM_TAP	363
T_NUM_BRK	10
T_NUM_HLD	88
T_NUM_SLD	47
T_NUM_ALL	508
T_JUDGE_TAP	373
T_JUDGE_HLD	179
T_JUDGE_SLD	47
T_JUDGE_ALL	599
TTM_EACHPAIRS	108
TTM_SCR_TAP	181500
TTM_SCR_BRK	26000
TTM_SCR_HLD	88000
TTM_SCR_SLD	70500
TTM_SCR_ALL	366000
TTM_SCR_S	354050
TTM_SCR_SS	365000
TTM_RAT_ACV	10027

