VERSION	0.00.00	1.03.00
FES_MODE	0
BPM_DEF	175.000	175.000	175.000	175.000
MET_DEF	4	4
RESOLUTION	384
CLK_DEF	384
COMPATIBLE_CODE	MA2

BPM	0	0	175.000
MET	0	0	4	4

HLD	2	0	3	1344
HLD	2	0	4	1344
TAP	6	0	5
TAP	6	96	4
TAP	6	96	5
TAP	6	288	2
TAP	7	0	2
TAP	7	0	3
TAP	7	192	5
TAP	7	288	4
TAP	7	288	5
TAP	8	96	3
TAP	8	96	4
TAP	8	192	2
TAP	8	192	5
TAP	8	288	1
TAP	8	288	6
TAP	9	0	0
TAP	9	0	7
TAP	9	48	0
TAP	9	48	7
TAP	9	96	0
TAP	9	96	7
XTP	9	192	1
XTP	9	192	6
HLD	10	0	5	96
TAP	10	96	4
TAP	10	192	4
HLD	11	0	2	96
TAP	11	96	3
TAP	11	192	3
STR	12	0	1
SI_	12	0	1	96	144	4
STR	13	0	5
SI_	13	0	5	96	144	0
HLD	14	0	1	96
TAP	14	96	0
TAP	14	192	0
HLD	15	0	6	96
TAP	15	96	7
TAP	15	192	7
STR	16	0	5
SCR	16	0	5	96	144	0
STR	17	0	1
SCR	17	0	1	96	144	4
TTP	18	0	6	E	0	L1
TTP	18	96	5	B	0	L1
TTP	18	192	4	B	0	L1
TTP	19	0	2	E	0	L1
TTP	19	96	2	B	0	L1
TTP	19	192	3	B	0	L1
STR	20	0	6
SI_	20	0	6	96	192	2
STR	21	0	1
SI_	21	0	1	96	192	5
TTP	22	0	6	E	0	L1
TTP	22	96	6	B	0	L1
TTP	22	192	7	B	0	L1
TTP	23	0	2	E	0	L1
TTP	23	96	1	B	0	L1
TTP	23	192	0	B	0	L1
STR	24	0	6
SUL	24	0	6	96	192	2
BRK	25	0	1
TAP	25	288	0
TAP	25	288	7
XTP	26	0	6
TAP	26	96	6
TAP	26	192	6
TAP	26	192	7
TAP	26	288	6
TAP	26	288	7
TAP	27	0	5
TAP	27	96	4
TAP	27	192	3
TAP	27	192	5
TAP	28	0	2
TAP	28	96	2
TAP	28	192	2
TAP	28	192	3
TAP	28	288	2
TAP	28	288	3
TAP	29	0	1
TAP	29	96	0
TAP	29	192	0
TAP	29	192	7
TAP	30	0	1
TAP	30	96	1
TAP	30	192	0
TAP	30	192	1
TAP	31	0	6
TAP	31	96	6
TAP	31	192	6
TAP	31	192	7
TAP	32	0	5
TAP	32	96	5
TAP	32	192	4
TAP	32	288	4
TAP	33	0	3
TAP	33	0	4
TAP	33	96	3
TAP	33	96	4
TAP	33	192	2
TAP	33	192	5
STR	34	0	6
SCL	34	0	6	96	192	3
STR	35	0	2
SCL	35	0	2	96	192	7
STR	36	0	6
SCL	36	0	6	96	192	3
STR	37	0	2
SCL	37	0	2	96	192	7
TAP	38	0	6
TAP	38	96	7
TAP	38	192	0
TAP	38	288	1
TAP	39	0	2
TAP	39	96	3
TAP	39	192	4
TAP	39	288	5
TAP	40	0	6
TAP	40	48	6
TAP	40	96	6
TAP	40	192	7
TAP	40	240	7
TAP	40	288	7
XST	41	0	0
SCR	41	0	0	96	192	3
XST	41	0	7
SCL	41	0	7	96	192	4
TTP	42	0	0	C	1	L1
XTP	43	288	0
XTP	43	288	7
XST	44	0	0
SCR	44	0	0	96	192	3
XST	44	0	7
SCL	44	0	7	96	192	4
XTP	45	288	3
XTP	45	288	4
TAP	46	0	5
TAP	46	96	5
TAP	46	192	4
TAP	46	192	5
TAP	47	0	2
TAP	47	96	2
TAP	47	192	2
TAP	47	192	3
TAP	48	0	5
TAP	48	96	4
TAP	48	192	3
TAP	48	288	2
BRK	49	0	3
BRK	49	0	4
HLD	50	0	5	384
HLD	51	0	4	384
HLD	52	0	3	384
XTP	53	0	2
HLD	54	0	1	384
HLD	55	0	0	384
HLD	56	0	7	384
XTP	57	0	6
TAP	57	192	0
TAP	57	192	7
TTP	58	0	6	E	0	L1
TTP	58	96	5	B	0	L1
TTP	58	192	4	B	0	L1
TTP	59	0	2	E	0	L1
TTP	59	96	2	B	0	L1
TTP	59	192	3	B	0	L1
TTP	60	0	6	E	0	L1
TTP	60	96	5	B	0	L1
TTP	60	192	4	B	0	L1
TTP	61	0	2	E	0	L1
TTP	61	96	2	B	0	L1
TTP	61	192	3	B	0	L1
TTP	62	0	6	B	0	L1
TTP	62	96	5	B	0	L1
TTP	62	192	5	E	0	L1
TTP	63	0	1	B	0	L1
TTP	63	96	2	B	0	L1
TTP	63	192	3	E	0	L1
XST	64	0	3
SI_	64	0	3	96	192	0
XST	64	0	4
SI_	64	0	4	96	192	7
TTP	65	0	0	C	1	L1
TAP	66	0	6
TAP	66	96	6
TAP	66	192	6
TAP	66	192	7
TAP	66	288	6
TAP	66	288	7
TAP	67	0	1
TAP	67	96	1
TAP	67	192	0
TAP	67	192	1
TAP	67	288	0
TAP	67	288	1
TAP	68	0	2
TAP	68	96	2
TAP	68	192	2
TAP	68	192	3
TAP	68	288	2
TAP	68	288	3
TAP	69	0	5
TAP	69	96	4
TAP	69	96	5
TAP	69	192	3
TAP	69	192	6
TAP	70	0	7
TAP	70	96	7
TAP	70	192	0
TAP	70	192	7
TAP	71	0	1
TAP	71	96	1
TAP	71	192	0
TAP	71	192	1
TAP	72	0	2
TAP	72	96	2
TAP	72	192	3
TAP	72	288	3
TAP	73	0	3
TAP	73	0	4
TAP	73	96	3
TAP	73	96	4
TAP	73	192	2
TAP	73	192	5
TAP	74	0	1
TAP	74	96	1
TAP	74	192	0
TAP	74	192	1
TAP	74	288	0
TAP	74	288	1
TAP	75	0	6
TAP	75	96	6
TAP	75	192	6
TAP	75	192	7
TAP	75	288	6
TAP	75	288	7
TAP	76	0	5
TAP	76	96	5
TAP	76	192	4
TAP	76	192	5
TAP	76	288	4
TAP	76	288	5
TAP	77	0	2
TAP	77	96	2
TAP	77	96	3
TAP	77	192	1
TAP	77	192	4
TAP	78	0	0
TAP	78	96	1
TAP	78	192	2
TAP	78	288	3
TAP	79	0	4
TAP	79	96	5
TAP	79	192	6
TAP	79	288	7
TAP	80	0	0
TAP	80	0	7
TAP	80	48	0
TAP	80	48	7
TAP	80	96	0
TAP	80	96	7
TAP	80	192	1
TAP	80	192	6
TAP	80	240	1
TAP	80	240	6
TAP	80	288	1
TAP	80	288	6
BST	81	0	2
SI_	81	0	2	96	192	7
BST	81	0	5
SI_	81	0	5	96	192	0
TTP	82	0	0	C	1	L1
XTP	83	288	0
XTP	83	288	7
XST	84	0	0
SCR	84	0	0	96	192	3
XST	84	0	7
SCL	84	0	7	96	192	4
XTP	85	288	3
XTP	85	288	4
TAP	86	0	5
TAP	86	96	6
TAP	86	192	7
TAP	86	288	0
TAP	87	0	1
TAP	87	96	2
TAP	87	192	3
TAP	87	288	4
TAP	88	0	3
TAP	88	0	4
TAP	88	48	3
TAP	88	48	4
TAP	88	96	3
TAP	88	96	4
TAP	88	192	2
TAP	88	192	5
TAP	88	240	2
TAP	88	240	5
TAP	88	288	2
TAP	88	288	5
TAP	89	0	1
TAP	89	0	6
TAP	89	48	1
TAP	89	48	6
TAP	89	96	1
TAP	89	96	6
TAP	89	192	0
TAP	89	192	7
TAP	89	240	0
TAP	89	240	7
TAP	89	288	0
TAP	89	288	7
TTP	90	0	0	C	1	L1

T_REC_TAP	212
T_REC_BRK	3
T_REC_XTP	13
T_REC_HLD	12
T_REC_XHO	0
T_REC_STR	11
T_REC_BST	2
T_REC_XST	8
T_REC_TTP	34
T_REC_THO	0
T_REC_SLD	21
T_REC_ALL	316
T_NUM_TAP	278
T_NUM_BRK	5
T_NUM_HLD	12
T_NUM_SLD	21
T_NUM_ALL	316
T_JUDGE_TAP	283
T_JUDGE_HLD	112
T_JUDGE_SLD	21
T_JUDGE_ALL	416
TTM_EACHPAIRS	75
TTM_SCR_TAP	139000
TTM_SCR_BRK	13000
TTM_SCR_HLD	12000
TTM_SCR_SLD	31500
TTM_SCR_ALL	195500
TTM_SCR_S	189150
TTM_SCR_SS	195000
TTM_RAT_ACV	10025

