VERSION	0.00.00	1.03.00
FES_MODE	0
BPM_DEF	175.000	175.000	175.000	175.000
MET_DEF	4	4
RESOLUTION	384
CLK_DEF	384
COMPATIBLE_CODE	MA2

BPM	0	0	175.000
MET	0	0	4	4

HLD	2	0	0	768
HLD	6	0	7	768
XTP	10	0	0
TAP	11	0	0
TAP	12	0	1
TAP	13	0	1
TAP	14	0	2
TAP	15	0	2
TAP	16	0	3
TAP	17	0	3
TAP	17	0	4
TAP	18	0	4
TAP	18	192	4
TAP	19	0	4
TAP	20	0	5
TAP	20	192	5
TAP	21	0	5
TAP	22	0	6
TAP	22	192	6
TAP	23	0	6
TAP	24	0	7
TAP	24	192	7
TAP	25	0	0
TAP	25	0	7
STR	26	0	7
SI_	26	0	7	96	288	4
STR	28	0	3
SI_	28	0	3	96	288	0
STR	30	0	7
SI_	30	0	7	96	288	4
TAP	32	0	3
TAP	33	0	3
TAP	33	0	4
TAP	34	0	2
TAP	34	192	2
TAP	35	0	2
TAP	35	0	3
TAP	36	0	1
TAP	36	192	1
TAP	37	0	0
TAP	37	0	1
TAP	38	0	6
TAP	38	192	6
TAP	39	0	6
TAP	39	0	7
TAP	40	0	5
TAP	40	192	5
TAP	41	0	4
TAP	41	0	5
STR	42	0	3
SI_	42	0	3	96	288	0
STR	42	0	4
SI_	42	0	4	96	288	7
HLD	44	0	0	384
HLD	44	0	7	384
TAP	46	0	0
TAP	46	192	0
TAP	47	0	0
TAP	47	0	1
TAP	48	0	7
TAP	48	192	7
TAP	49	0	6
TAP	49	0	7
TTP	50	0	7	B	0	L1
TTP	51	0	0	B	0	L1
TTP	52	0	6	B	0	L1
TTP	53	0	1	B	0	L1
TTP	54	0	5	B	0	L1
TTP	55	0	2	B	0	L1
TTP	56	0	4	B	0	L1
TTP	57	0	0	C	0	L1
TAP	58	0	0
TAP	58	192	0
TAP	59	0	1
TAP	60	0	2
TAP	60	192	2
TAP	61	0	3
TAP	61	0	4
TAP	62	0	5
TAP	62	192	5
TAP	63	0	6
TAP	64	0	7
TAP	64	192	7
TAP	65	0	0
TAP	65	0	7
BRK	66	0	7
TAP	66	96	7
TAP	66	192	7
TAP	67	0	6
TAP	67	192	6
TAP	68	0	5
TAP	68	96	5
TAP	68	192	5
TAP	69	0	4
TAP	69	192	3
TAP	69	192	4
TAP	70	0	3
TAP	70	96	3
TAP	70	192	3
TAP	71	0	2
TAP	71	96	2
TAP	71	192	2
TAP	72	0	1
TAP	72	96	1
TAP	72	192	1
XTP	73	0	0
XTP	73	0	7
TAP	74	0	0
TAP	74	96	0
TAP	74	192	0
TAP	75	0	1
TAP	75	96	1
TAP	75	192	1
TAP	76	0	2
TAP	76	96	2
TAP	76	192	2
TAP	77	0	3
TAP	77	0	4
TAP	77	192	3
TAP	77	192	4
TAP	78	0	4
TAP	78	96	4
TAP	78	192	4
TAP	79	0	5
TAP	79	96	5
TAP	79	192	5
TAP	80	0	6
TAP	80	96	6
TAP	80	192	6
BRK	81	0	0
BRK	81	0	7
STR	82	0	7
SI_	82	0	7	96	288	4
STR	84	0	3
SI_	84	0	3	96	288	0
TTP	86	0	0	E	0	L1
TTP	87	0	1	E	0	L1
TTP	87	0	7	E	0	L1
TTP	88	0	2	E	0	L1
TTP	88	0	6	E	0	L1
THO	89	0	0	384	C	0	L1

T_REC_TAP	103
T_REC_BRK	3
T_REC_XTP	3
T_REC_HLD	4
T_REC_XHO	0
T_REC_STR	7
T_REC_BST	0
T_REC_XST	0
T_REC_TTP	13
T_REC_THO	1
T_REC_SLD	7
T_REC_ALL	141
T_NUM_TAP	126
T_NUM_BRK	3
T_NUM_HLD	5
T_NUM_SLD	7
T_NUM_ALL	141
T_JUDGE_TAP	129
T_JUDGE_HLD	56
T_JUDGE_SLD	7
T_JUDGE_ALL	192
TTM_EACHPAIRS	18
TTM_SCR_TAP	63000
TTM_SCR_BRK	7800
TTM_SCR_HLD	5000
TTM_SCR_SLD	10500
TTM_SCR_ALL	86300
TTM_SCR_S	83450
TTM_SCR_SS	86000
TTM_RAT_ACV	10034

