VERSION	0.00.00	1.03.00
FES_MODE	0
BPM_DEF	222.000	222.000	222.000	222.000
MET_DEF	4	4
RESOLUTION	384
CLK_DEF	384
COMPATIBLE_CODE	MA2

BPM	0	0	222.000
MET	0	0	4	4

TTP	1	0	0	C	1	M1
TTP	1	0	0	E	0	M1
TTP	1	0	3	B	0	M1
TTP	1	0	4	E	0	M1
TTP	1	0	7	B	0	M1
HLD	3	0	3	192
HLD	3	192	4	192
TAP	3	336	3
TAP	4	0	3
TAP	4	96	5
TAP	4	192	4
TAP	4	288	3
TAP	5	0	3
TAP	5	0	4
TAP	5	96	5
TAP	5	144	5
TAP	5	192	1
TAP	5	240	1
TAP	5	288	7
TAP	5	336	7
TAP	6	0	0
TAP	6	0	7
TAP	6	96	1
TAP	6	144	1
TAP	6	192	5
TAP	6	240	5
TAP	6	288	2
TAP	6	336	2
HLD	7	0	2	96
HLD	7	0	4	96
HLD	7	192	4	96
HLD	7	192	6	96
TAP	8	0	1
TAP	8	48	1
TAP	8	96	6
TAP	8	144	6
TAP	8	192	0
TAP	8	216	7
TAP	8	240	0
TAP	8	264	7
TAP	8	288	0
TAP	8	312	7
TAP	8	336	0
TAP	8	360	7
BRK	9	0	0
TAP	9	24	1
TAP	9	48	2
TAP	9	72	3
TAP	9	96	4
TAP	9	120	5
TAP	9	144	6
TAP	9	168	7
TAP	9	192	0
TAP	9	216	1
TAP	9	240	2
TAP	9	264	3
TAP	9	288	4
TAP	9	312	5
TAP	9	336	6
TAP	9	360	7
XTP	10	0	0
XTP	10	64	2
XTP	10	128	4
XTP	10	192	3
XTP	10	256	5
XTP	10	320	7
HLD	11	0	1	384
BRK	11	0	4
TTP	11	144	6	E	0	M1
TTP	11	168	5	B	0	M1
TTP	11	192	4	B	0	M1
TTP	11	336	2	E	0	M1
TTP	11	360	2	B	0	M1
TTP	12	0	3	B	0	M1
TAP	12	64	0
TAP	12	128	7
TAP	12	192	6
TAP	12	256	7
TAP	12	320	6
TAP	13	0	0
TAP	13	0	5
TAP	13	64	1
TAP	13	128	2
TAP	13	192	3
XHO	13	192	4	384
TTP	14	0	2	B	0	M1
TTP	14	0	3	B	0	M1
TAP	14	192	5
TAP	14	288	6
BRK	15	0	0
HLD	15	0	7	384
TTP	15	144	6	E	0	M1
TTP	15	168	5	B	0	M1
TTP	15	192	4	B	0	M1
TTP	15	336	2	E	0	M1
TTP	15	360	2	B	0	M1
TTP	16	0	3	B	0	M1
TAP	16	64	7
TAP	16	128	0
TAP	16	192	1
TAP	16	256	0
TAP	16	320	1
TAP	17	0	2
TAP	17	0	7
TAP	17	64	6
TAP	17	128	5
TAP	17	192	3
HLD	17	192	4	192
BRK	18	0	0
XTP	18	192	2
XTP	18	192	4
XTP	18	256	2
XTP	18	256	4
XTP	18	336	3
XTP	18	360	4
XHO	19	0	3	336
TTP	19	144	1	E	0	M1
TTP	19	168	2	E	0	M1
TTP	19	192	3	E	0	M1
TTP	19	336	7	E	0	M1
TTP	19	360	6	E	0	M1
TTP	20	0	5	E	0	M1
TAP	20	64	2
TAP	20	128	2
TAP	20	192	4
TAP	20	256	5
TAP	20	320	5
TTP	21	0	4	E	0	M1
TTP	21	64	0	C	0	M1
TTP	21	128	0	E	0	M1
XTP	21	192	0
XTP	21	192	7
TAP	21	336	1
TAP	21	336	6
XTP	22	0	1
XTP	22	0	6
TAP	22	96	2
TAP	22	144	1
TAP	22	144	3
TAP	22	240	5
TAP	22	288	4
TAP	22	288	6
HLD	23	0	1	72
HLD	23	72	2	72
HLD	23	144	3	72
TAP	23	216	4
TAP	23	288	4
TAP	23	288	5
HLD	24	0	6	72
HLD	24	72	5	72
HLD	24	144	4	72
TAP	24	216	3
TAP	24	288	2
TAP	24	288	3
XTP	25	0	3
XTP	25	0	5
XTP	25	64	7
XTP	25	128	5
XTP	25	184	2
XTP	25	184	4
XTP	25	256	0
XTP	25	320	2
XTP	26	0	5
TAP	26	32	4
TAP	26	64	6
XTP	26	96	2
TAP	26	128	3
TAP	26	160	1
XTP	26	192	7
TAP	26	224	6
TAP	26	256	5
XTP	26	288	1
TAP	26	320	2
TAP	26	352	3
BST	27	0	4
SXL	27	0	4	96	336	1
BST	27	0	5
SXR	27	0	5	96	336	0
XTP	28	192	0
XTP	28	192	7
XTP	28	264	1
XTP	28	264	6
XTP	28	336	3
XTP	28	336	4
XST	29	0	3
SF_	29	0	3	96	48	7
XTP	29	0	4
TTP	29	96	3	B	0	M1
TTP	29	120	0	C	1	M1
TTP	29	144	7	B	0	M1
XTP	29	288	0
XST	29	288	5
SCL	29	288	5	96	96	1
STR	30	0	1
SCL	30	0	1	96	96	5
TAP	30	96	5
HLD	30	192	2	72
HLD	30	264	3	72
TAP	30	336	1
STR	31	0	1
SI_	31	0	1	96	48	4
TAP	31	96	5
STR	31	144	6
SI_	31	144	6	96	48	2
TAP	31	240	1
STR	31	288	0
SCR	31	288	0	96	48	3
STR	32	0	0
SCL	32	0	0	96	48	5
STR	32	96	0
SI_	32	96	0	96	48	4
TAP	32	192	0
TAP	32	288	2
TAP	32	288	6
TAP	33	0	3
TAP	33	48	2
TAP	33	96	1
TAP	33	96	3
TAP	33	144	0
TAP	33	192	5
TAP	33	240	6
TAP	33	288	2
STR	33	288	7
SCL	33	288	7	96	96	3
STR	34	0	3
SCL	34	0	3	96	96	7
TAP	34	96	7
TAP	34	192	3
XST	34	288	2
SCL	34	288	2	96	48	0
XST	34	288	6
SCL	34	288	6	96	48	4
TAP	35	0	2
TAP	35	0	6
XST	35	96	3
SI_	35	96	3	96	48	6
XST	35	96	7
SI_	35	96	7	96	48	2
TAP	35	192	3
TAP	35	192	7
XHO	35	288	3	96
XST	35	288	7
SI_	35	288	7	96	48	3
BRK	36	0	7
XTP	36	96	1
XTP	36	96	5
XTP	36	144	1
XTP	36	144	5
TAP	36	240	3
TAP	36	288	4
TAP	36	336	5
STR	37	0	6
SCL	37	0	6	96	48	3
TAP	37	0	7
TAP	37	96	3
STR	37	144	2
SI_	37	144	2	96	48	7
TAP	37	240	3
STR	37	288	4
SCR	37	288	4	96	96	0
STR	38	0	0
SCL	38	0	0	96	96	4
TAP	38	96	3
XHO	38	192	1	72
TAP	38	264	0
TAP	38	336	2
TAP	38	336	7
STR	39	0	2
SV_	39	0	2	96	48	7
TAP	39	0	7
TAP	39	96	4
STR	39	144	6
SV_	39	144	6	96	48	3
TAP	39	240	0
HLD	39	288	1	96
STR	40	0	3
SI_	40	0	3	96	48	7
TAP	40	96	2
XTP	40	192	3
XTP	40	192	6
TAP	40	288	5
TAP	40	312	4
TAP	40	336	5
TAP	40	360	4
STR	41	0	5
SI_	41	0	5	96	48	1
TAP	41	96	3
STR	41	144	2
SI_	41	144	2	96	48	6
TAP	41	240	7
HLD	41	288	7	96
TAP	42	0	0
TAP	42	24	1
TAP	42	48	2
TAP	42	72	3
TAP	42	96	7
TAP	42	120	6
TAP	42	144	5
TAP	42	168	4
TAP	42	192	1
TAP	42	216	2
TAP	42	240	3
TAP	42	264	4
TAP	42	288	6
TAP	42	312	5
TAP	42	336	4
TAP	42	360	3
HLD	43	0	1	72
TAP	43	72	0
TAP	43	144	2
TAP	43	144	7
HLD	43	192	6	72
TAP	43	264	7
TAP	43	336	0
TAP	43	336	5
XTP	44	0	2
XTP	44	0	3
TAP	44	72	4
TAP	44	72	5
TAP	44	144	3
TAP	44	144	6
XTP	44	192	0
XTP	44	192	1
TAP	44	264	2
TAP	44	264	3
TAP	44	336	3
TAP	44	336	4
XTP	45	0	2
XST	45	0	5
SI_	45	0	5	96	48	1
TAP	45	96	1
TAP	45	96	5
STR	45	192	0
SI_	45	192	0	96	48	4
TAP	45	288	0
TAP	45	288	7
STR	46	0	5
SI_	46	0	5	96	48	0
TAP	46	96	3
TAP	46	96	5
STR	46	192	1
SI_	46	192	1	96	48	5
TAP	46	288	1
TAP	46	288	6
STR	47	0	7
SI_	47	0	7	96	48	3
STR	47	96	1
SI_	47	96	1	96	48	4
TAP	47	96	7
TAP	47	192	1
STR	47	192	5
SI_	47	192	5	96	48	1
STR	47	288	0
SF_	47	288	0	96	48	4
TAP	47	288	5
TAP	48	0	0
STR	48	96	2
SI_	48	96	2	96	48	7
STR	48	96	6
SI_	48	96	6	96	48	3
TAP	48	192	2
TAP	48	192	6
XTP	48	288	0
XTP	48	288	4
HLD	49	0	1	72
HLD	49	72	2	72
HLD	49	144	3	72
HLD	49	216	4	72
TAP	49	288	5
TAP	49	336	5
TAP	50	0	4
HLD	50	0	6	72
HLD	50	72	5	72
HLD	50	144	4	72
HLD	50	216	3	72
TAP	50	288	2
HLD	51	0	1	576
BRK	51	0	7
TTP	51	144	1	E	0	M1
TTP	51	168	2	E	0	M1
TTP	51	192	3	E	0	M1
TTP	51	336	7	E	0	M1
TTP	51	360	6	E	0	M1
TTP	52	0	5	E	0	M1
TTP	52	144	0	E	0	M1
TTP	52	168	0	C	0	M1
TTP	52	192	4	E	0	M1
STR	52	288	1
SI_	52	288	1	96	48	5
BRK	53	0	7
XTP	54	0	1
XTP	54	32	3
XTP	54	64	2
XTP	54	96	6
XTP	54	128	4
XTP	54	160	5
XTP	54	192	3
XTP	54	216	4
XTP	54	240	3
XTP	54	264	4
XTP	54	288	3
XTP	54	312	4
XTP	54	336	3
XTP	54	360	4
TTP	55	0	0	C	1	M1
HLD	57	0	4	672
HLD	58	0	3	288
TAP	59	0	4
TAP	59	24	3
TAP	59	48	4
BRK	59	96	2
BRK	59	96	5
HLD	59	192	0	24
HLD	59	192	6	24
HLD	59	240	0	24
HLD	59	240	6	24
HLD	59	288	1	24
HLD	59	288	5	24
HLD	59	336	1	24
HLD	59	336	5	24
HLD	60	0	2	24
HLD	60	0	4	24
HLD	60	48	2	24
HLD	60	48	4	24
HLD	60	96	3	24
HLD	60	96	5	24
HLD	60	144	3	24
HLD	60	144	5	24
HLD	60	192	2	24
HLD	60	192	6	24
HLD	60	240	2	24
HLD	60	240	6	24
HLD	60	288	2	24
HLD	60	288	6	24
HLD	60	336	2	24
HLD	60	336	6	24
HLD	61	0	3	24
HLD	61	0	5	24
HLD	61	48	3	24
HLD	61	48	5	24
HLD	61	96	2	24
HLD	61	96	4	24
HLD	61	144	2	24
HLD	61	144	4	24
HLD	61	192	1	24
HLD	61	192	3	24
HLD	61	240	1	24
HLD	61	240	3	24
HLD	61	288	2	24
HLD	61	288	4	24
HLD	61	336	2	24
HLD	61	336	4	24
HLD	62	0	3	24
HLD	62	0	5	24
HLD	62	48	3	24
HLD	62	48	5	24
HLD	62	96	4	24
HLD	62	96	6	24
HLD	62	144	4	24
HLD	62	144	6	24
HLD	62	192	3	24
HLD	62	192	5	24
HLD	62	240	2	24
HLD	62	240	4	24
HLD	62	288	1	24
HLD	62	288	3	24
HLD	62	336	1	24
HLD	62	336	3	24
HLD	63	0	2	24
HLD	63	0	4	24
HLD	63	48	3	24
HLD	63	48	5	24
HLD	63	96	4	24
HLD	63	96	6	24
HLD	63	144	4	24
HLD	63	144	6	24
HLD	63	192	3	24
HLD	63	192	7	24
HLD	63	240	3	24
HLD	63	240	7	24
HLD	63	288	2	24
HLD	63	288	6	24
HLD	63	336	2	24
HLD	63	336	6	24
HLD	64	0	1	24
HLD	64	0	5	24
HLD	64	48	1	24
HLD	64	48	5	24
HLD	64	96	2	24
HLD	64	96	6	24
HLD	64	144	2	24
HLD	64	144	6	24
HLD	64	192	1	24
HLD	64	192	5	24
HLD	64	240	0	24
HLD	64	240	4	24
HLD	64	288	1	24
HLD	64	288	5	24
HLD	64	336	2	24
HLD	64	336	6	24
HLD	65	0	3	24
HLD	65	0	7	24
HLD	65	48	4	24
HLD	65	48	6	24
HLD	65	96	3	24
HLD	65	96	5	24
HLD	65	144	2	24
HLD	65	144	4	24
HLD	65	192	1	24
HLD	65	192	5	24
HLD	65	240	1	24
HLD	65	240	5	24
HLD	65	288	2	24
HLD	65	288	4	24
HLD	65	336	2	24
HLD	65	336	4	24
HLD	66	0	3	24
HLD	66	0	5	24
HLD	66	48	3	24
HLD	66	48	5	24
HLD	66	96	2	24
HLD	66	96	6	24
HLD	66	144	2	24
HLD	66	144	6	24
HLD	66	192	1	24
HLD	66	192	7	24
HLD	66	240	2	24
HLD	66	240	6	24
HLD	66	288	3	24
HLD	66	288	5	24
HLD	66	336	2	24
HLD	66	336	4	24
HLD	67	0	1	24
HLD	67	0	5	24
HLD	67	48	1	24
HLD	67	48	5	24
HLD	67	96	0	24
HLD	67	96	6	24
HLD	67	144	0	24
HLD	67	144	6	24
BRK	67	192	2
BRK	67	192	4
TAP	67	264	1
HLD	67	288	1	72
TAP	67	360	3
HLD	68	0	3	72
TAP	68	72	2
TAP	68	96	2
TAP	68	120	4
TAP	68	144	5
TAP	68	168	0
TAP	68	192	1
TAP	68	216	2
TAP	68	240	3
TAP	68	264	4
TAP	68	288	7
TAP	68	312	6
TAP	68	336	5
TAP	68	360	4
TAP	69	0	0
TAP	69	24	1
TAP	69	48	2
TAP	69	72	3
TAP	69	96	6
TAP	69	120	5
TAP	69	144	4
TAP	69	168	3
TAP	69	192	1
TAP	69	216	0
TAP	69	240	1
TAP	69	264	0
TAP	69	288	1
TAP	69	312	0
TAP	69	336	1
TAP	70	0	6
TAP	70	24	7
TAP	70	48	6
TAP	70	72	7
TAP	70	96	6
TAP	70	120	7
TAP	70	144	6
TAP	70	192	3
TAP	70	216	4
TAP	70	240	3
TAP	70	264	4
TAP	70	288	3
TAP	70	312	4
TAP	70	336	3
TAP	71	0	7
TAP	71	24	0
TAP	71	48	7
BRK	71	96	1
BRK	71	96	6
TAP	71	192	0
TAP	71	216	1
TAP	71	240	2
TAP	71	264	3
TAP	71	288	5
TAP	71	312	6
TAP	71	336	7
TAP	71	360	0
TAP	72	0	3
TAP	72	24	2
TAP	72	48	1
TAP	72	72	0
TAP	72	96	6
TAP	72	120	5
TAP	72	144	4
TAP	72	168	3
TAP	72	192	1
TAP	72	216	2
TAP	72	240	3
TAP	72	264	4
TAP	72	288	7
TAP	72	312	6
TAP	72	336	5
TAP	72	360	4
XTP	73	0	1
XTP	73	32	3
XTP	73	64	2
XTP	73	96	6
XTP	73	128	4
XTP	73	160	5
TAP	73	192	3
TAP	73	216	4
TAP	73	240	3
TAP	73	264	4
TAP	73	288	3
TAP	73	312	4
TAP	73	336	3
TAP	73	360	4
TAP	74	0	3
TAP	74	24	2
TAP	74	48	1
TAP	74	72	0
TAP	74	96	7
TAP	74	120	6
TAP	74	144	5
TAP	74	168	4
TAP	74	192	7
TAP	74	216	6
TAP	74	240	5
TAP	74	264	4
TAP	74	288	7
TAP	74	312	6
TAP	74	336	5
TAP	74	360	4
TAP	75	0	0
TAP	75	24	1
TAP	75	48	2
TAP	75	72	3
TAP	75	96	0
TAP	75	120	1
TAP	75	144	2
TAP	75	168	3
BRK	75	192	0
XTP	75	288	7
TAP	75	320	3
TAP	75	352	5
XTP	76	0	0
TAP	76	32	4
TAP	76	64	2
XTP	76	96	6
TAP	76	128	4
TAP	76	160	5
XTP	76	192	1
TAP	76	224	3
TAP	76	256	2
XTP	76	288	5
TAP	76	320	4
TAP	76	352	6
XTP	77	0	2
TAP	77	32	3
TAP	77	64	1
XTP	77	96	5
TAP	77	128	3
TAP	77	160	7
BRK	77	192	0
TAP	77	224	0
TAP	77	256	2
TAP	77	288	7
TAP	77	320	7
TAP	77	352	5
TAP	78	0	1
TAP	78	32	1
TAP	78	64	3
TAP	78	96	6
TAP	78	128	6
TAP	78	160	4
TAP	78	192	2
TAP	78	224	2
TAP	78	256	0
TAP	78	288	5
TAP	78	320	5
TAP	78	352	7
TAP	79	0	1
TAP	79	32	1
TAP	79	64	4
TAP	79	96	6
TAP	79	128	6
TAP	79	160	3
TTP	79	192	0	C	1	M1
TAP	80	192	1
TAP	80	216	6
TAP	80	240	1
TAP	80	264	6
TAP	80	288	1
TAP	80	312	6
TAP	80	336	1
TAP	80	360	6
TAP	81	0	2
TAP	81	24	5
TAP	81	48	2
TAP	81	72	5
STR	81	96	3
SI_	81	96	3	96	48	0
STR	81	120	4
SI_	81	120	4	96	24	7
TAP	81	144	3
TAP	81	168	4
BRK	81	192	3
TTP	81	208	4	E	0	M1
TTP	81	224	0	C	1	M1
TTP	81	240	0	E	0	M1
XTP	83	0	2
XTP	83	0	3
XTP	83	64	4
XTP	83	64	6
XST	83	128	0
SXL	83	128	0	96	288	3
XST	83	128	5
SXL	83	128	5	96	288	3
TTP	84	192	0	C	1	M1
TTP	84	192	0	E	0	M1
TTP	84	192	3	B	0	M1
TTP	84	192	4	E	0	M1
TTP	84	192	7	B	0	M1
TAP	87	48	1
TAP	87	48	6
TAP	87	96	1
TAP	87	96	6
XST	87	192	0
SI_	87	192	0	96	48	4
XST	87	192	7
SI_	87	192	7	96	48	3
XTP	87	204	1
XTP	87	204	6
XTP	87	216	2
XTP	87	216	5
XTP	87	228	3
XTP	87	228	4
STR	87	288	0
SCR	87	288	0	96	48	3
STR	87	288	7
SCL	87	288	7	96	48	4
TAP	88	0	0
TAP	88	0	7
XTP	88	96	1
XTP	88	96	6
STR	88	192	3
SI_	88	192	3	96	48	7
STR	88	192	4
SI_	88	192	4	96	48	0
BRK	88	288	3
BRK	88	288	4
TTP	88	300	0	C	1	M1
XTP	89	48	2
XTP	89	48	3
TAP	89	96	1
TAP	89	96	4
TAP	89	144	0
TAP	89	144	5
TAP	89	192	6
STR	89	192	7
SCR	89	192	7	96	48	2
STR	89	288	7
SCL	89	288	7	96	48	4
TAP	90	0	7
XST	90	96	1
SI_	90	96	1	96	48	3
XST	90	96	3
SI_	90	96	3	96	48	7
TAP	90	192	1
TAP	90	192	3
XST	90	288	4
SI_	90	288	4	96	48	7
XST	90	288	6
SI_	90	288	6	96	48	4
TAP	91	0	4
TAP	91	0	6
XST	91	96	0
SI_	91	96	0	96	48	3
XST	91	96	3
SI_	91	96	3	96	48	0
TAP	91	192	0
TAP	91	192	3
XTP	91	288	4
XTP	91	288	7
XTP	91	336	4
XTP	91	336	7
TAP	92	48	3
TAP	92	96	4
TAP	92	144	5
STR	92	192	6
SCL	92	192	6	96	48	3
TAP	92	192	7
TAP	92	288	3
STR	92	336	2
SI_	92	336	2	96	48	7
TAP	93	48	3
STR	93	96	4
SLR	93	96	4	96	96	0
STR	93	192	0
SLL	93	192	0	96	96	4
TAP	93	288	3
XHO	94	0	2	72
TAP	94	72	3
TAP	94	144	1
TAP	94	144	4
HLD	94	192	1	48
HLD	94	192	4	48
HLD	94	264	2	48
HLD	94	264	5	48
XTP	94	336	3
XTP	94	336	6
TAP	95	48	5
STR	95	96	5
SI_	95	96	5	96	48	7
TAP	95	144	3
STR	95	192	5
SI_	95	192	5	96	48	3
TAP	95	288	1
TAP	95	288	5
XTP	96	0	0
XTP	96	0	5
TAP	96	96	1
TAP	96	120	3
TAP	96	144	1
TAP	96	168	3
HLD	96	192	2	72
HLD	96	264	3	72
STR	96	336	4
SI_	96	336	4	96	48	0
TAP	97	48	6
HLD	97	96	6	96
TAP	97	192	0
TAP	97	216	1
TAP	97	240	2
TAP	97	264	3
TAP	97	288	7
TAP	97	312	6
TAP	97	336	5
TAP	97	360	4
TAP	98	0	2
TAP	98	24	1
TAP	98	48	0
TAP	98	72	7
TAP	98	96	4
TAP	98	120	5
TAP	98	144	6
TAP	98	168	7
HLD	98	192	1	72
TAP	98	264	0
TAP	98	336	2
TAP	98	336	7
HLD	99	0	6	72
TAP	99	72	7
TAP	99	144	0
TAP	99	144	5
XTP	99	192	1
XTP	99	192	4
TAP	99	264	3
TAP	99	264	5
TAP	99	336	6
TAP	99	336	7
XTP	100	0	0
XTP	100	0	5
TAP	100	72	1
TAP	100	72	3
TAP	100	144	4
TAP	100	144	6
XTP	100	192	3
XST	100	192	7
SI_	100	192	7	96	48	3
STR	100	288	0
SI_	100	288	0	96	48	4
TAP	100	288	7
TAP	101	0	0
STR	101	0	5
SI_	101	0	5	96	48	7
STR	101	96	1
SI_	101	96	1	96	48	5
TAP	101	96	5
STR	101	192	0
SI_	101	192	0	96	48	6
TAP	101	192	1
STR	101	288	4
SI_	101	288	4	96	48	1
TAP	102	0	4
STR	102	0	5
SI_	102	0	5	96	48	0
XTP	102	96	0
TAP	102	96	5
STR	102	192	1
SI_	102	192	1	96	48	5
TAP	102	288	1
STR	102	288	4
SI_	102	288	4	96	48	0
STR	103	0	3
SI_	103	0	3	96	48	7
TAP	103	0	4
TAP	103	96	3
STR	103	96	5
SI_	103	96	5	96	48	0
TAP	103	192	1
TAP	103	192	5
STR	103	288	2
SI_	103	288	2	96	48	7
STR	103	288	6
SI_	103	288	6	96	48	3
TAP	104	0	2
TAP	104	0	6
BRK	104	96	0
BRK	104	96	4
HLD	104	192	1	48
HLD	104	192	3	48
HLD	104	264	2	48
HLD	104	264	4	48
HLD	104	336	3	48
HLD	104	336	5	48
HLD	105	24	4	48
HLD	105	24	6	48
TAP	105	96	3
TAP	105	96	7
HLD	105	192	4	48
HLD	105	192	6	48
HLD	105	264	3	48
HLD	105	264	5	48
HLD	105	336	2	48
HLD	105	336	4	48
HLD	106	24	1	48
HLD	106	24	3	48
TAP	106	96	0
TAP	106	96	4
HLD	106	192	2	576
BRK	106	192	6
TTP	106	336	1	B	0	M1
TTP	106	360	2	B	0	M1
TTP	107	0	3	B	0	M1
TTP	107	144	7	B	0	M1
TTP	107	168	6	B	0	M1
TTP	107	192	5	B	0	M1
TTP	107	336	0	B	0	M1
TTP	107	360	0	C	0	M1
TTP	108	0	4	B	0	M1
XTP	108	96	3
XTP	108	96	5
BRK	108	192	1
HLD	108	192	7	576
TTP	108	336	7	E	0	M1
TTP	108	360	6	E	0	M1
TTP	109	0	5	E	0	M1
TTP	109	144	1	E	0	M1
TTP	109	168	2	E	0	M1
TTP	109	192	3	E	0	M1
TTP	109	336	0	E	0	M1
TTP	109	360	0	C	0	M1
TTP	110	0	4	E	0	M1
XTP	110	96	3
XTP	110	96	4
TAP	110	192	2
TAP	110	192	5
TAP	110	288	7
TAP	110	320	1
TAP	110	352	3
TAP	111	0	0
TAP	111	32	4
TAP	111	64	2
TAP	111	96	7
TAP	111	128	3
TAP	111	160	5
TAP	111	192	0
TAP	111	224	6
TAP	111	256	2
TAP	111	288	0
TAP	111	320	4
TAP	111	352	6
TAP	112	0	7
TAP	112	32	3
TAP	112	64	1
TAP	112	96	0
TAP	112	128	4
TAP	112	160	6
THO	112	192	0	192	C	0	M1
TAP	113	192	7
TAP	113	216	0
TAP	113	240	7
TAP	113	264	0
TAP	113	288	7
TAP	113	312	0
TAP	113	336	7
TAP	113	360	0
XTP	114	0	6
XTP	114	12	5
XTP	114	24	4
XTP	114	36	3
XTP	114	48	2
XTP	114	60	1
XTP	114	72	0
XTP	114	84	7
XTP	114	96	6
XTP	114	108	5
XTP	114	120	4
XTP	114	132	3
XTP	114	144	2
XTP	114	156	1
XTP	114	168	0
XTP	114	180	7
XTP	114	192	6
XTP	114	204	5
XTP	114	216	4
XTP	114	228	3
XTP	114	240	2
XTP	114	252	1
XTP	114	264	0
XTP	114	276	7
TTP	114	288	0	C	1	M1
XTP	114	288	6
TAP	115	48	6
TAP	115	48	7
TAP	115	96	0
TAP	115	144	1
STR	115	192	2
SI_	115	192	2	96	48	7
TAP	115	240	2
TAP	115	288	6
TAP	115	336	6
TAP	116	0	0
TAP	116	24	1
TAP	116	48	2
TAP	116	72	3
TAP	116	96	5
TAP	116	120	6
TAP	116	144	7
TAP	116	168	0
STR	116	192	4
SI_	116	192	4	96	48	0
TAP	116	240	4
STR	116	288	6
SCL	116	288	6	96	48	3
TAP	116	336	6
STR	117	0	1
SI_	117	0	1	96	48	5
TAP	117	48	1
TAP	117	96	7
TAP	117	144	7
TAP	117	192	4
TAP	117	216	3
TAP	117	240	2
TAP	117	264	1
TAP	117	288	6
TAP	117	312	5
TAP	117	336	4
TAP	117	360	3
TAP	118	0	0
TAP	118	24	1
TAP	118	48	2
TAP	118	72	3
TAP	118	96	7
TAP	118	120	0
TAP	118	144	1
TAP	118	168	2
BRK	118	192	3
TAP	118	216	4
TAP	118	240	5
TAP	118	264	6
TAP	118	288	7
TAP	118	336	3
TAP	118	360	4
TAP	119	0	5
TAP	119	24	6
TAP	119	48	7
TAP	119	96	4
TAP	119	120	5
TAP	119	144	6
TAP	119	168	7
BRK	119	192	4
TAP	119	216	3
TAP	119	240	2
TAP	119	264	1
TAP	119	288	0
TAP	119	336	4
TAP	119	360	3
TAP	120	0	2
TAP	120	24	1
TAP	120	48	0
TAP	120	96	3
TAP	120	120	2
TAP	120	144	1
TAP	120	168	0
HLD	120	192	6	72
TAP	120	264	4
HLD	120	288	4	72
TAP	120	360	3
HLD	121	0	3	72
TAP	121	72	1
HLD	121	96	1	72
TAP	121	192	7
TAP	121	216	0
TAP	121	240	7
TAP	121	264	0
TAP	121	288	6
TAP	121	312	1
TAP	121	336	6
TAP	121	360	1
TAP	122	0	5
TAP	122	24	2
TAP	122	48	5
TAP	122	72	2
TAP	122	96	4
TAP	122	120	3
TAP	122	144	4
TAP	122	168	3
STR	122	192	5
SI_	122	192	5	96	48	7
TAP	122	240	5
TAP	122	288	1
TAP	122	336	2
STR	123	0	0
SI_	123	0	0	96	48	4
TAP	123	48	0
TAP	123	96	3
TAP	123	144	2
STR	123	192	5
SI_	123	192	5	96	48	3
TAP	123	240	5
STR	123	288	1
SI_	123	288	1	96	48	7
TAP	123	336	1
STR	124	0	5
SI_	124	0	5	96	48	1
TAP	124	48	5
TAP	124	96	1
TAP	124	144	2
STR	124	192	3
SI_	124	192	3	96	48	7
TAP	124	240	3
TAP	124	288	6
TAP	124	336	5
STR	125	0	0
SI_	125	0	0	96	48	2
TAP	125	48	0
TAP	125	96	3
TAP	125	144	4
STR	125	192	5
SI_	125	192	5	96	48	0
TAP	125	240	5
STR	125	288	2
SCR	125	288	2	96	48	5
TAP	125	336	2
STR	126	0	7
SI_	126	0	7	96	48	3
TAP	126	48	7
BRK	126	96	0
HLD	126	192	1	48
TAP	126	240	3
HLD	126	264	2	48
TAP	126	312	4
HLD	126	336	3	48
TAP	127	0	5
TAP	127	24	4
TAP	127	72	6
TAP	127	96	7
TAP	127	144	0
TAP	127	144	5
HLD	127	192	6	48
TAP	127	240	4
HLD	127	264	5	48
TAP	127	312	3
HLD	127	336	4	48
TAP	128	0	2
TAP	128	24	3
TAP	128	72	0
TAP	128	96	7
TAP	128	144	1
TAP	128	144	6
TAP	128	192	3
TAP	128	216	4
TAP	128	240	3
TAP	128	264	4
TAP	128	288	3
TAP	128	312	4
TAP	128	336	3
TAP	128	360	4
TAP	129	0	3
TAP	129	12	2
TAP	129	24	1
TAP	129	36	0
TAP	129	48	7
TAP	129	60	6
TAP	129	72	5
TAP	129	84	4
TAP	129	96	3
TAP	129	108	2
TAP	129	120	1
TAP	129	132	0
TAP	129	144	7
TAP	129	156	6
TAP	129	168	5
TAP	129	180	4
XTP	129	192	3
XHO	129	192	7	720
HLD	130	192	0	336
STR	131	192	0
SI_	131	192	0	96	48	4
STR	131	192	7
SI_	131	192	7	96	48	3
BRK	131	288	0
BRK	131	288	7
TTP	131	312	0	C	1	M1
TAP	134	240	0
TAP	134	240	7
TAP	134	288	0
TAP	134	288	7
TAP	134	336	1
TAP	134	336	6
TAP	135	0	1
TAP	135	0	6
STR	135	48	2
SI_	135	48	2	96	48	6
STR	135	48	5
SI_	135	48	5	96	48	1
TAP	135	96	3
TAP	135	96	4
BRK	135	144	2
BRK	135	144	5
TTP	135	160	2	B	0	M1
TTP	135	160	5	B	0	M1
TTP	135	176	0	C	1	M1
TTP	135	192	1	B	0	M1
TTP	135	192	6	B	0	M1

T_REC_TAP	609
T_REC_BRK	29
T_REC_XTP	134
T_REC_HLD	200
T_REC_XHO	6
T_REC_STR	72
T_REC_BST	2
T_REC_XST	19
T_REC_TTP	76
T_REC_THO	1
T_REC_SLD	93
T_REC_ALL	1241
T_NUM_TAP	910
T_NUM_BRK	31
T_NUM_HLD	207
T_NUM_SLD	93
T_NUM_ALL	1241
T_JUDGE_TAP	941
T_JUDGE_HLD	355
T_JUDGE_SLD	93
T_JUDGE_ALL	1389
TTM_EACHPAIRS	212
TTM_SCR_TAP	455000
TTM_SCR_BRK	80600
TTM_SCR_HLD	207000
TTM_SCR_SLD	139500
TTM_SCR_ALL	882100
TTM_SCR_S	852650
TTM_SCR_SS	879000
TTM_RAT_ACV	10035

