VERSION	0.00.00	1.03.00
FES_MODE	0
BPM_DEF	222.000	222.000	222.000	222.000
MET_DEF	4	4
RESOLUTION	384
CLK_DEF	384
COMPATIBLE_CODE	MA2

BPM	0	0	222.000
MET	0	0	4	4

TTP	1	0	0	C	1	M1
TTP	1	0	1	B	0	M1
TTP	1	0	2	B	0	M1
TTP	1	0	2	E	0	M1
TTP	1	0	5	B	0	M1
TTP	1	0	6	B	0	M1
TTP	1	0	6	E	0	M1
TAP	3	0	4
TAP	3	192	3
TAP	3	192	4
TAP	4	0	5
TAP	4	96	4
TAP	4	192	3
TAP	4	192	5
HLD	5	0	2	384
TAP	5	0	4
HLD	6	0	5	192
HLD	6	192	4	192
HLD	7	0	3	144
TAP	7	144	2
TAP	7	192	2
TAP	7	192	3
TAP	7	336	5
TAP	8	0	4
TAP	8	0	5
TAP	8	96	6
TAP	8	96	7
TAP	8	192	0
TAP	8	192	1
STR	8	288	2
SCL	8	288	2	96	288	4
TAP	8	288	3
TTP	9	0	0	C	1	M1
XTP	10	0	3
XTP	10	64	3
XTP	10	128	3
XTP	10	192	4
XTP	10	256	4
XTP	10	320	4
TTP	11	0	0	C	1	M1
TTP	12	0	2	B	0	M1
TTP	12	192	3	B	0	M1
TTP	13	0	4	B	0	M1
TTP	13	192	5	B	0	M1
TTP	14	0	6	B	0	M1
TTP	14	192	1	E	0	M1
TTP	14	192	7	E	0	M1
THO	15	0	0	192	C	0	M1
TTP	16	0	6	B	0	M1
TTP	16	192	5	B	0	M1
TTP	17	0	3	E	0	M1
TTP	17	192	2	B	0	M1
TTP	18	0	1	B	0	M1
TTP	18	192	1	E	0	M1
TTP	18	192	7	E	0	M1
XHO	19	0	0	192
XHO	19	0	7	192
TTP	20	0	0	E	0	M1
TTP	20	192	0	C	0	M1
TTP	21	0	4	E	0	M1
XTP	21	192	3
XTP	21	192	4
XTP	21	288	3
XTP	21	288	4
TAP	22	0	2
TAP	22	0	5
TAP	22	96	3
TAP	22	144	3
TAP	22	240	4
TAP	22	288	4
HLD	23	0	3	96
HLD	23	0	5	96
TAP	23	192	4
TAP	23	192	6
TAP	23	288	4
TAP	23	288	6
HLD	24	0	2	96
HLD	24	0	4	96
TAP	24	192	1
TAP	24	192	3
TAP	24	288	1
TAP	24	288	3
XTP	25	0	5
XTP	25	64	6
XTP	25	128	7
XTP	25	192	0
XTP	25	256	1
XTP	25	320	2
TAP	26	0	3
TAP	26	0	4
TAP	26	64	2
TAP	26	64	5
TAP	26	128	1
TAP	26	128	6
TAP	26	192	0
TAP	26	192	7
TAP	26	256	1
TAP	26	256	6
TAP	26	320	2
TAP	26	320	5
BST	27	0	3
SXL	27	0	3	96	336	0
BST	27	0	4
SXR	27	0	4	96	336	7
XTP	28	208	0
XTP	28	208	7
TAP	29	0	1
STR	29	0	6
SI_	29	0	6	96	48	3
BRK	29	96	0
TAP	29	144	0
TAP	29	240	2
TAP	29	288	1
STR	29	288	3
SCR	29	288	3	96	144	0
TAP	30	0	0
TAP	30	96	1
HLD	30	192	2	72
TAP	30	264	3
TAP	30	336	1
TAP	30	336	4
TAP	31	0	1
TAP	31	0	4
TAP	31	96	5
TAP	31	144	4
TAP	31	144	6
TAP	31	240	0
TAP	31	288	1
STR	31	288	7
SI_	31	288	7	96	48	3
STR	32	0	2
SI_	32	0	2	96	48	7
STR	32	96	5
SI_	32	96	5	96	48	1
TAP	32	192	0
TAP	32	288	2
TAP	33	0	4
TAP	33	0	6
TAP	33	96	1
TAP	33	96	3
TAP	33	144	1
TAP	33	144	3
TAP	33	240	4
TAP	33	240	6
TAP	33	288	4
TAP	33	288	6
HLD	34	0	0	48
HLD	34	0	7	48
HLD	34	96	1	48
HLD	34	96	3	48
HLD	34	192	3	48
HLD	34	192	4	48
TAP	34	288	4
TAP	34	288	6
STR	35	0	0
SCR	35	0	0	96	48	3
TAP	35	96	7
STR	35	192	6
SCL	35	192	6	96	48	3
TAP	35	288	7
TAP	36	0	0
TAP	36	96	1
TAP	36	96	3
TAP	36	144	1
TAP	36	144	3
TAP	36	240	4
TAP	36	240	6
TAP	36	288	4
TAP	36	288	6
TAP	37	0	0
TAP	37	0	7
TAP	37	96	2
TAP	37	144	1
TAP	37	144	3
TAP	37	240	5
STR	37	288	4
SCL	37	288	4	96	144	7
TAP	37	288	6
TAP	38	0	7
TAP	38	96	6
HLD	38	192	5	72
TAP	38	264	4
TAP	38	336	3
TAP	38	336	6
TAP	39	0	3
TAP	39	0	6
TAP	39	96	2
TAP	39	144	1
TAP	39	144	3
TAP	39	240	7
STR	39	288	0
SI_	39	288	0	96	48	4
TAP	39	288	6
STR	40	0	5
SI_	40	0	5	96	48	0
STR	40	96	2
SI_	40	96	2	96	48	6
TAP	40	192	7
TAP	40	288	5
TAP	41	0	1
TAP	41	0	3
TAP	41	96	4
TAP	41	96	6
TAP	41	144	4
TAP	41	144	6
TAP	41	240	1
TAP	41	240	3
TAP	41	288	1
TAP	41	288	3
TAP	42	0	4
TAP	42	48	5
TAP	42	96	3
TAP	42	144	2
TAP	42	192	5
TAP	42	240	6
TAP	42	288	3
TAP	42	336	2
HLD	43	0	0	72
STR	43	0	1
SI_	43	0	1	96	48	4
STR	43	192	6
SI_	43	192	6	96	48	3
HLD	43	192	7	72
HLD	44	0	1	72
TAP	44	72	0
TAP	44	144	2
TAP	44	144	7
HLD	44	192	6	72
TAP	44	264	7
TAP	44	336	0
TAP	44	336	5
TAP	45	0	0
TAP	45	0	5
TAP	45	96	1
HLD	45	96	3	96
TAP	45	192	2
TAP	45	240	2
TAP	45	336	3
TAP	45	336	4
HLD	46	48	5	96
TAP	46	144	4
TAP	46	192	4
TAP	46	288	3
TAP	46	288	6
TAP	47	0	7
HLD	47	96	4	96
TAP	47	96	6
TAP	47	192	5
TAP	47	240	5
TAP	47	336	3
TAP	47	336	6
XTP	48	0	3
XTP	48	0	6
XTP	48	96	1
XTP	48	96	4
XTP	48	192	0
XTP	48	192	7
XTP	48	288	3
XTP	48	288	4
TAP	49	0	1
TAP	49	0	6
TAP	49	96	3
TAP	49	96	5
TAP	49	144	3
STR	49	144	5
SI_	49	144	5	96	48	0
XTP	49	240	1
XTP	49	288	1
TAP	50	0	3
TAP	50	0	7
TAP	50	96	2
TAP	50	96	4
STR	50	144	2
SI_	50	144	2	96	48	7
TAP	50	144	4
XTP	50	240	6
XTP	50	288	6
BRK	51	0	1
BRK	51	0	4
TTP	51	144	5	B	0	M1
TTP	51	192	5	E	0	M1
TTP	51	336	2	B	0	M1
TTP	52	0	3	E	0	M1
TTP	52	144	0	C	0	M1
TTP	52	192	4	E	0	M1
BRK	53	0	1
BRK	53	0	6
XTP	54	0	0
XTP	54	32	7
XTP	54	64	0
XTP	54	96	7
XTP	54	128	0
XTP	54	160	7
XTP	54	192	0
XTP	54	224	7
XTP	54	256	0
XTP	54	288	7
XTP	54	320	0
XTP	54	352	7
BST	55	0	0
SCR	55	0	0	96	480	7
STR	57	0	0
SI_	57	0	0	96	144	3
TAP	57	0	7
STR	58	0	4
SCR	58	0	4	96	144	7
HLD	59	0	0	48
HLD	59	0	7	48
BRK	59	96	0
BRK	59	96	7
HLD	59	192	5	576
TAP	59	288	4
TAP	60	0	4
TAP	60	96	4
TTP	60	192	6	E	0	M1
TTP	60	288	5	E	0	M1
TTP	61	0	4	E	0	M1
TTP	61	96	3	E	0	M1
XHO	61	192	2	576
TAP	61	288	3
TAP	62	0	3
TAP	62	96	3
TTP	62	192	2	E	0	M1
TTP	62	288	3	E	0	M1
TTP	63	0	4	E	0	M1
TTP	63	96	5	E	0	M1
XHO	63	192	5	480
TAP	63	288	6
TAP	64	0	6
TAP	64	96	6
TTP	64	192	6	E	0	M1
TTP	64	288	7	E	0	M1
TTP	65	0	0	E	0	M1
TTP	65	96	1	E	0	M1
XHO	65	192	2	480
TAP	65	288	1
TAP	66	0	1
TAP	66	96	1
TTP	66	192	2	E	0	M1
TTP	66	288	1	E	0	M1
TTP	67	0	0	E	0	M1
TTP	67	96	7	E	0	M1
XHO	67	192	6	384
TTP	67	288	5	E	0	M1
TTP	68	0	3	E	0	M1
TTP	68	96	0	C	0	M1
STR	68	192	7
SCR	68	192	7	96	96	2
STR	69	0	4
SCR	69	0	4	96	96	7
XHO	69	192	2	384
TTP	69	288	1	E	0	M1
TTP	70	0	7	E	0	M1
TTP	70	96	0	C	0	M1
STR	70	192	3
SCR	70	192	3	96	96	6
STR	71	0	0
SCR	71	0	0	96	96	3
XHO	71	192	6	384
TTP	71	288	5	E	0	M1
TTP	72	0	3	E	0	M1
TTP	72	96	0	C	0	M1
STR	72	192	7
SCR	72	192	7	96	96	2
STR	73	0	4
SCR	73	0	4	96	96	7
XHO	73	192	2	384
TTP	73	288	1	E	0	M1
TTP	74	0	7	E	0	M1
TTP	74	96	0	C	0	M1
STR	74	192	3
SCR	74	192	3	96	96	6
STR	75	0	0
SCR	75	0	0	96	96	3
TAP	75	192	4
HLD	75	288	4	64
HLD	75	288	6	64
HLD	76	0	4	64
HLD	76	0	6	64
HLD	76	96	4	64
HLD	76	96	6	64
HLD	76	192	4	64
HLD	76	192	6	64
HLD	76	288	3	64
HLD	76	288	5	64
HLD	77	0	2	64
HLD	77	0	4	64
HLD	77	96	1	64
HLD	77	96	3	64
HLD	77	192	0	64
HLD	77	192	4	64
HLD	77	288	1	64
HLD	77	288	5	64
HLD	78	0	2	64
HLD	78	0	6	64
TAP	78	96	2
TAP	78	96	6
TAP	78	192	3
TAP	78	224	4
TAP	78	256	3
TAP	78	288	4
TAP	78	320	3
TAP	78	352	4
TAP	79	0	3
TAP	79	32	4
TAP	79	64	3
TAP	79	96	4
TAP	79	128	3
TAP	79	160	4
BST	79	192	3
SCL	79	192	3	96	192	7
TAP	80	192	6
TAP	80	288	6
TAP	80	288	7
TAP	81	0	0
TAP	81	48	0
TAP	81	96	1
TAP	81	96	7
XST	81	192	2
SXR	81	192	2	96	336	7
XST	81	192	6
SXR	81	192	6	96	336	3
XTP	83	0	1
XTP	83	0	5
XTP	83	64	1
XTP	83	64	5
XST	83	128	1
SXL	83	128	1	96	288	7
XST	83	128	5
SXL	83	128	5	96	288	3
TTP	84	192	0	C	1	M1
TTP	84	192	2	B	0	M1
TTP	84	192	5	B	0	M1
HLD	86	192	4	384
TAP	87	192	3
TAP	87	288	3
TAP	87	288	4
TAP	88	0	2
TAP	88	0	5
BRK	88	192	0
BRK	88	192	7
TAP	88	288	1
TAP	88	288	3
TAP	88	336	1
TAP	88	336	3
TAP	89	48	4
TAP	89	48	6
TAP	89	96	4
TAP	89	96	6
HLD	89	192	0	48
HLD	89	192	7	48
HLD	89	288	1	48
HLD	89	288	3	48
HLD	90	0	3	48
HLD	90	0	4	48
TAP	90	96	4
TAP	90	96	6
STR	90	192	0
SCR	90	192	0	96	48	3
TAP	90	288	7
STR	91	0	6
SCL	91	0	6	96	48	3
TAP	91	96	7
TAP	91	192	0
TAP	91	288	1
TAP	91	288	3
TAP	91	336	1
TAP	91	336	3
TAP	92	48	4
TAP	92	48	6
TAP	92	96	4
TAP	92	96	6
TAP	92	192	0
TAP	92	192	7
TAP	92	288	5
TAP	92	336	4
TAP	92	336	6
TAP	93	48	2
TAP	93	96	1
STR	93	96	3
SLR	93	96	3	96	144	7
TAP	93	192	0
TAP	93	288	1
HLD	94	0	2	72
TAP	94	72	3
TAP	94	144	1
TAP	94	144	4
HLD	94	192	5	72
TAP	94	264	4
TAP	94	336	3
TAP	94	336	6
TAP	95	48	1
TAP	95	48	4
STR	95	96	1
SI_	95	96	1	96	48	5
TAP	95	96	4
STR	95	192	6
SI_	95	192	6	96	48	2
STR	95	288	3
SI_	95	288	3	96	48	0
TAP	96	0	7
XTP	96	96	1
XTP	96	96	6
HLD	96	192	4	72
HLD	96	264	5	72
TAP	96	336	6
TAP	97	48	0
TAP	97	48	7
TAP	97	96	0
TAP	97	96	7
TAP	97	192	3
TAP	97	240	2
TAP	97	288	4
TAP	97	336	5
TAP	98	0	2
TAP	98	48	1
TAP	98	96	4
TAP	98	144	5
STR	98	192	6
SI_	98	192	6	96	48	3
HLD	98	192	7	72
HLD	99	0	0	72
STR	99	0	1
SI_	99	0	1	96	48	4
HLD	99	192	6	72
TAP	99	264	7
TAP	99	336	0
TAP	99	336	5
HLD	100	0	1	72
TAP	100	72	0
TAP	100	144	2
TAP	100	144	7
TAP	100	192	2
TAP	100	192	7
HLD	100	288	4	96
TAP	100	288	6
TAP	101	0	5
TAP	101	48	5
TAP	101	144	3
TAP	101	144	4
HLD	101	240	2	96
TAP	101	336	3
TAP	102	0	3
TAP	102	96	1
TAP	102	96	4
TAP	102	192	0
TAP	102	288	1
HLD	102	288	3	96
TAP	103	0	2
TAP	103	48	2
TAP	103	144	1
TAP	103	144	4
XTP	103	192	1
XTP	103	192	4
XTP	103	288	3
XTP	103	288	6
XTP	104	0	0
XTP	104	0	7
XTP	104	96	3
XTP	104	96	4
TAP	104	192	1
TAP	104	192	6
TAP	104	288	2
TAP	104	288	4
STR	104	336	2
SI_	104	336	2	96	48	7
TAP	104	336	4
XTP	105	48	6
XTP	105	96	6
TAP	105	192	0
TAP	105	192	4
TAP	105	288	3
TAP	105	288	5
TAP	105	336	3
STR	105	336	5
SI_	105	336	5	96	48	0
XTP	106	48	1
XTP	106	96	1
BRK	106	192	3
BRK	106	192	6
TTP	106	336	2	B	0	M1
TTP	107	0	3	E	0	M1
TTP	107	144	5	B	0	M1
TTP	107	192	5	E	0	M1
TTP	107	336	0	C	0	M1
TTP	108	0	4	E	0	M1
BRK	108	192	0
BRK	108	192	7
TTP	108	336	1	E	0	M1
TTP	109	0	2	E	0	M1
TTP	109	144	7	E	0	M1
TTP	109	192	6	E	0	M1
TTP	109	336	0	E	0	M1
TTP	110	0	0	C	0	M1
XTP	110	192	0
XTP	110	192	7
HLD	110	288	1	64
HLD	110	288	6	64
HLD	111	0	1	64
HLD	111	0	6	64
TAP	111	96	1
TAP	111	96	6
TAP	111	192	7
TAP	111	224	0
TAP	111	256	7
TAP	111	288	0
TAP	111	320	7
TAP	111	352	0
TAP	112	0	7
TAP	112	32	0
TAP	112	64	7
TAP	112	96	0
TAP	112	128	7
TAP	112	160	0
BST	112	192	7
SXL	112	192	7	96	288	3
SXR	112	192	7	96	288	3
TAP	114	0	2
TAP	114	0	4
TAP	114	48	2
TAP	114	48	4
BRK	114	96	1
BRK	114	96	5
STR	114	192	3
SI_	114	192	3	96	48	0
STR	114	192	4
SI_	114	192	4	96	48	7
TAP	115	96	1
TAP	115	96	6
TAP	115	192	5
TAP	115	240	5
TAP	115	288	3
TAP	115	336	3
TAP	116	0	4
TAP	116	0	5
TAP	116	96	3
TAP	116	96	6
STR	116	192	2
SLL	116	192	2	96	144	4
TAP	116	192	7
TAP	116	288	6
TAP	117	0	5
TAP	117	48	5
TAP	117	96	5
TAP	117	192	4
STR	117	192	6
SLL	117	192	6	96	144	0
TAP	117	288	2
TAP	118	0	1
TAP	118	48	1
TAP	118	96	1
TAP	118	192	0
STR	118	192	2
SLL	118	192	2	96	144	4
TAP	118	288	6
TAP	119	0	5
TAP	119	48	5
TAP	119	96	5
TAP	119	192	4
STR	119	192	6
SLL	119	192	6	96	144	0
TAP	119	288	2
TAP	120	0	1
TAP	120	48	1
TAP	120	96	1
HLD	120	192	0	72
HLD	120	192	2	72
HLD	120	288	5	72
HLD	120	288	7	72
HLD	121	0	1	72
HLD	121	0	3	72
TAP	121	96	4
TAP	121	96	6
TAP	121	192	1
TAP	121	240	2
TAP	121	288	6
TAP	121	336	5
TAP	122	0	3
TAP	122	48	4
BRK	122	96	2
BRK	122	96	5
TAP	122	192	6
TAP	122	240	4
TAP	122	288	5
TAP	122	336	7
TAP	123	0	6
TAP	123	48	4
TAP	123	96	5
TAP	123	144	7
TAP	123	192	6
TAP	123	240	4
TAP	123	288	5
TAP	123	336	7
TAP	124	0	6
TAP	124	48	4
XTP	124	96	3
XTP	124	96	5
TAP	124	192	1
TAP	124	240	3
TAP	124	288	2
TAP	124	336	0
TAP	125	0	1
TAP	125	48	3
TAP	125	96	2
TAP	125	144	0
TAP	125	192	1
TAP	125	240	3
TAP	125	288	2
TAP	125	336	0
TAP	126	0	1
TAP	126	48	3
XTP	126	96	2
XTP	126	96	4
XHO	126	192	0	64
XHO	126	256	1	80
XHO	126	336	2	80
XTP	127	32	3
XTP	127	80	3
XHO	127	192	7	64
XHO	127	256	6	80
XHO	127	336	5	80
XTP	128	32	4
XTP	128	80	4
TAP	128	192	0
TAP	128	216	1
TAP	128	240	2
TAP	128	264	3
TAP	128	288	4
TAP	128	312	5
TAP	128	336	6
TAP	128	360	7
TAP	129	0	0
TAP	129	24	1
TAP	129	48	2
TAP	129	72	3
TAP	129	96	4
TAP	129	120	5
TAP	129	144	6
TAP	129	168	7
BST	129	192	0
SXL	129	192	0	96	288	3
STR	130	192	4
SXL	130	192	4	96	288	7
TTP	131	288	0	C	1	M1
TTP	131	288	1	B	0	M1
TTP	131	288	2	B	0	M1
TTP	131	288	2	E	0	M1
TTP	131	288	5	B	0	M1
TTP	131	288	6	B	0	M1
TTP	131	288	6	E	0	M1
TAP	134	240	3
TAP	134	240	4
TAP	134	288	3
TAP	134	288	4
TAP	134	336	2
TAP	134	336	5
TAP	135	0	2
TAP	135	0	5
TAP	135	48	1
TAP	135	48	6
TAP	135	96	1
TAP	135	96	6
BRK	135	144	0
BRK	135	144	7

T_REC_TAP	396
T_REC_BRK	19
T_REC_XTP	70
T_REC_HLD	74
T_REC_XHO	15
T_REC_STR	43
T_REC_BST	6
T_REC_XST	4
T_REC_TTP	82
T_REC_THO	1
T_REC_SLD	54
T_REC_ALL	764
T_NUM_TAP	595
T_NUM_BRK	25
T_NUM_HLD	90
T_NUM_SLD	54
T_NUM_ALL	764
T_JUDGE_TAP	620
T_JUDGE_HLD	249
T_JUDGE_SLD	54
T_JUDGE_ALL	923
TTM_EACHPAIRS	175
TTM_SCR_TAP	297500
TTM_SCR_BRK	65000
TTM_SCR_HLD	90000
TTM_SCR_SLD	81000
TTM_SCR_ALL	533500
TTM_SCR_S	515100
TTM_SCR_SS	531000
TTM_RAT_ACV	10047

