VERSION	0.00.00	1.03.00
FES_MODE	0
BPM_DEF	222.000	222.000	222.000	222.000
MET_DEF	4	4
RESOLUTION	384
CLK_DEF	384
COMPATIBLE_CODE	MA2

BPM	0	0	222.000
MET	0	0	4	4

TTP	1	0	0	C	1	L1
XTP	3	0	3
XTP	3	0	4
XTP	3	192	3
XTP	3	192	4
TAP	4	0	2
TAP	4	0	5
TAP	4	96	2
TAP	4	96	5
TAP	4	192	2
TAP	4	192	5
HLD	5	0	6	192
HLD	5	0	7	192
HLD	6	0	0	96
HLD	6	0	1	96
HLD	6	192	0	96
HLD	6	192	1	96
XTP	7	0	2
XTP	7	0	3
XTP	7	192	4
XTP	7	192	5
TAP	8	0	3
TAP	8	0	4
TAP	8	96	2
TAP	8	96	5
HLD	8	192	1	96
HLD	8	192	6	96
TAP	9	0	1
TAP	9	0	6
XTP	10	0	7
XTP	10	64	7
XTP	10	128	7
XTP	10	192	0
XTP	10	256	0
XTP	10	320	0
BRK	11	0	7
TTP	12	0	1	E	0	L1
TTP	13	0	0	E	0	L1
TTP	14	0	7	E	0	L1
TTP	15	0	6	E	0	L1
TTP	16	0	5	E	0	L1
TTP	17	0	4	E	0	L1
TTP	18	0	3	E	0	L1
TTP	19	0	2	E	0	L1
TTP	20	0	1	E	0	L1
XTP	21	0	0
XTP	21	0	7
TAP	21	192	1
TAP	21	192	6
TAP	22	0	2
TAP	22	0	5
TAP	22	192	3
TAP	22	192	4
TAP	22	288	3
TAP	22	288	4
TAP	23	0	5
TAP	23	96	5
TAP	23	192	4
TAP	23	192	5
TAP	24	0	2
TAP	24	96	2
TAP	24	192	2
TAP	24	192	3
TAP	25	0	5
TAP	25	96	4
TAP	25	192	3
TAP	25	288	2
TAP	26	0	1
TAP	26	96	0
TAP	26	192	7
TAP	26	240	7
TAP	26	288	7
BST	27	0	0
SCR	27	0	0	96	288	5
TAP	28	192	6
TAP	28	288	6
TAP	29	0	5
BRK	29	96	5
TAP	29	192	4
TAP	29	192	5
TAP	29	288	4
TAP	29	288	5
TAP	30	0	6
TAP	30	96	7
TAP	30	192	0
TAP	30	288	1
TAP	31	0	2
TAP	31	96	2
TAP	31	192	2
TAP	31	192	3
TAP	31	288	2
TAP	31	288	3
TAP	32	0	1
TAP	32	96	0
TAP	32	192	1
TAP	32	192	7
TAP	33	0	6
TAP	33	96	6
TAP	33	192	6
TAP	33	192	7
TAP	34	0	1
TAP	34	96	1
TAP	34	192	0
TAP	34	192	1
TAP	35	0	2
TAP	35	96	2
TAP	35	96	3
TAP	35	192	5
TAP	35	288	4
TAP	35	288	5
TAP	36	0	3
TAP	36	96	3
TAP	36	96	4
TAP	36	192	2
TAP	36	192	5
TAP	37	0	1
TAP	37	96	1
TAP	37	192	0
TAP	37	192	1
TAP	37	288	0
TAP	37	288	1
TAP	38	0	2
TAP	38	96	3
TAP	38	192	4
TAP	38	288	5
TAP	39	0	6
TAP	39	96	6
TAP	39	192	6
TAP	39	192	7
TAP	39	288	6
TAP	39	288	7
TAP	40	0	5
TAP	40	96	3
TAP	40	96	4
TAP	40	192	2
TAP	40	192	5
TAP	41	0	1
TAP	41	96	0
TAP	41	192	7
TAP	41	288	6
TAP	42	0	0
TAP	42	48	0
TAP	42	96	0
TAP	42	192	7
TAP	42	240	7
TAP	42	288	7
TAP	43	0	0
TAP	43	0	7
TAP	43	96	0
TAP	43	96	7
TAP	43	192	1
TAP	43	192	6
TAP	43	288	1
TAP	43	288	6
STR	44	0	2
SI_	44	0	2	96	192	7
STR	44	0	5
SI_	44	0	5	96	192	0
TAP	45	0	6
TAP	45	96	6
TAP	45	192	7
TAP	45	288	7
TAP	46	0	0
TAP	46	96	0
TAP	46	192	1
TAP	46	192	7
TAP	47	0	2
TAP	47	96	2
TAP	47	192	3
TAP	47	288	3
TAP	48	0	4
TAP	48	96	3
TAP	48	96	4
TAP	48	192	2
TAP	48	192	5
TAP	49	0	6
TAP	49	96	7
TAP	49	192	0
TAP	49	288	1
TAP	50	0	2
TAP	50	96	3
TAP	50	192	4
TAP	50	288	5
HLD	51	0	3	96
HLD	51	0	4	96
HLD	51	192	2	96
HLD	51	192	5	96
HLD	52	0	1	96
HLD	52	0	6	96
HLD	52	192	0	96
HLD	52	192	7	96
TTP	53	0	0	C	1	L1
TTP	53	0	2	B	0	L1
TTP	53	0	5	B	0	L1
XTP	54	0	0
XTP	54	0	7
XTP	54	96	0
XTP	54	96	7
XTP	54	192	1
XTP	54	192	6
XTP	54	288	2
XTP	54	288	5
BST	55	0	3
SXR	55	0	3	96	480	0
BST	55	0	4
SXL	55	0	4	96	480	7
THO	57	0	0	384	C	0	L1
XTP	59	0	0
XTP	59	0	7
HLD	59	192	6	96
TAP	59	288	7
TAP	60	0	7
HLD	60	192	1	96
TAP	60	288	0
TAP	61	0	0
HLD	61	192	6	96
TAP	61	288	7
TAP	62	0	7
HLD	62	192	0	96
HLD	62	192	1	96
TAP	63	0	0
TAP	63	0	1
HLD	63	192	2	96
TAP	63	288	3
TAP	64	0	3
HLD	64	192	5	96
TAP	64	288	4
TAP	65	0	4
HLD	65	192	2	96
TAP	65	288	3
TAP	66	0	3
HLD	66	192	3	96
HLD	66	192	4	96
TAP	67	0	3
TAP	67	0	4
HLD	67	192	5	192
HLD	68	0	4	192
HLD	68	192	3	192
TAP	69	0	2
HLD	69	192	1	192
HLD	70	0	0	192
HLD	70	192	7	192
TAP	71	0	6
TTP	71	192	6	E	0	L1
TTP	71	288	5	B	0	L1
TTP	72	0	4	B	0	L1
TTP	72	192	2	E	0	L1
TTP	72	288	2	B	0	L1
TTP	73	0	3	B	0	L1
TTP	73	192	6	E	0	L1
TTP	73	288	5	B	0	L1
TTP	74	0	4	B	0	L1
TTP	74	192	2	E	0	L1
TTP	74	288	2	B	0	L1
TTP	75	0	3	B	0	L1
TTP	75	192	0	C	1	L1
TTP	76	0	0	B	0	L1
TTP	76	0	7	B	0	L1
TTP	76	192	1	B	0	L1
TTP	76	192	6	B	0	L1
TTP	77	0	2	B	0	L1
TTP	77	0	5	B	0	L1
TTP	77	192	3	B	0	L1
TTP	77	192	4	B	0	L1
TTP	78	0	3	E	0	L1
TTP	78	0	5	E	0	L1
TTP	78	192	2	E	0	L1
TTP	78	192	6	E	0	L1
TTP	79	0	1	E	0	L1
TTP	79	0	7	E	0	L1
TTP	79	192	0	C	1	L1
TAP	80	192	0
TAP	80	192	7
TAP	80	288	0
TAP	80	288	7
TAP	81	0	1
TAP	81	0	6
XST	81	192	0
SUR	81	192	0	96	288	4
XST	81	192	7
SUL	81	192	7	96	288	3
TAP	83	0	3
TAP	83	0	4
TAP	83	96	2
TAP	83	96	5
BST	84	192	6
SUL	84	192	6	96	480	4
HLD	86	192	3	192
HLD	86	192	4	192
TAP	87	192	3
TAP	87	192	4
TAP	87	288	3
TAP	87	288	4
TAP	88	0	2
TAP	88	0	5
TAP	88	192	6
TAP	88	288	6
TAP	88	288	7
TAP	89	0	6
TAP	89	96	6
TAP	89	96	7
TAP	89	192	1
TAP	89	288	0
TAP	89	288	1
TAP	90	0	1
TAP	90	96	0
TAP	90	96	1
TAP	90	192	2
TAP	90	288	2
TAP	90	288	3
TAP	91	0	5
TAP	91	96	4
TAP	91	96	5
TAP	91	192	3
TAP	91	288	3
TAP	91	288	4
TAP	92	0	2
TAP	92	0	5
TAP	92	192	5
TAP	92	288	4
TAP	92	288	5
TAP	93	0	5
TAP	93	96	4
TAP	93	96	5
TAP	93	192	6
TAP	93	288	7
TAP	94	0	0
TAP	94	96	1
TAP	94	192	2
TAP	94	288	2
TAP	94	288	3
TAP	95	0	2
TAP	95	96	2
TAP	95	96	3
TAP	95	192	1
TAP	95	288	0
TAP	95	288	7
TAP	96	0	1
TAP	96	0	6
TAP	96	192	5
TAP	96	288	4
TAP	97	0	3
TAP	97	96	2
TAP	97	192	4
TAP	97	240	4
TAP	97	288	4
TAP	98	0	3
TAP	98	48	3
TAP	98	96	3
TAP	98	192	3
TAP	98	192	4
TAP	98	288	3
TAP	98	288	4
TAP	99	0	2
TAP	99	0	5
TAP	99	96	2
TAP	99	96	5
STR	99	192	1
SI_	99	192	1	96	192	4
STR	99	192	6
SI_	99	192	6	96	192	3
TAP	100	192	2
TAP	100	288	2
TAP	101	0	3
TAP	101	96	3
TAP	101	192	4
TAP	101	288	4
TAP	102	0	3
TAP	102	0	5
TAP	102	192	6
TAP	102	288	6
TAP	103	0	7
TAP	103	96	7
TAP	103	192	0
TAP	103	288	0
TAP	103	288	7
TAP	104	0	1
TAP	104	0	6
TAP	104	192	2
TAP	104	288	3
TAP	105	0	4
TAP	105	96	5
TAP	105	192	6
TAP	105	288	7
TAP	106	0	0
TAP	106	96	1
HLD	106	192	0	96
HLD	106	192	1	96
HLD	107	0	2	96
HLD	107	0	3	96
HLD	107	192	4	96
HLD	107	192	5	96
HLD	108	0	6	96
HLD	108	0	7	96
HLD	108	192	0	96
HLD	108	192	1	96
HLD	109	0	2	96
HLD	109	0	3	96
HLD	109	192	4	96
HLD	109	192	5	96
HLD	110	0	6	96
HLD	110	0	7	96
XTP	110	288	0
XTP	110	288	7
XTP	111	0	0
XTP	111	0	7
XTP	111	96	1
XTP	111	96	6
TAP	111	192	2
TAP	111	192	5
TAP	111	240	2
TAP	111	240	5
TAP	111	288	2
TAP	111	288	5
TAP	112	0	3
TAP	112	0	4
TAP	112	48	3
TAP	112	48	4
TAP	112	96	3
TAP	112	96	4
BST	112	192	2
SXR	112	192	2	96	480	4
BST	112	192	5
SXL	112	192	5	96	480	3
TAP	114	192	3
TAP	114	192	4
BRK	114	288	2
BRK	114	288	5
TAP	115	96	3
TAP	115	96	4
TAP	115	192	5
TAP	115	288	4
TAP	115	288	5
TAP	116	0	5
TAP	116	96	3
TAP	116	96	6
TAP	116	192	2
TAP	116	288	2
TAP	116	288	3
TAP	117	0	2
TAP	117	96	1
TAP	117	96	4
TAP	117	192	0
TAP	117	240	0
TAP	117	288	0
TAP	118	0	7
TAP	118	48	7
TAP	118	96	7
TAP	118	192	6
TAP	118	288	6
TAP	118	288	7
TAP	119	0	6
TAP	119	96	0
TAP	119	96	5
TAP	119	192	1
TAP	119	288	0
TAP	119	288	1
TAP	120	0	1
TAP	120	96	2
TAP	120	96	7
TAP	120	192	3
TAP	120	288	4
TAP	121	0	5
TAP	121	96	6
TAP	121	192	7
TAP	121	240	7
TAP	121	288	7
TAP	122	0	0
TAP	122	0	7
TAP	122	96	1
TAP	122	96	6
TAP	122	192	2
TAP	122	240	2
TAP	122	288	2
TAP	123	0	1
TAP	123	48	1
TAP	123	96	1
TAP	123	192	0
TAP	123	192	7
TAP	123	288	6
TAP	124	0	5
TAP	124	96	3
TAP	124	96	4
TAP	124	192	5
TAP	124	240	5
TAP	124	288	5
TAP	125	0	6
TAP	125	48	6
TAP	125	96	6
TAP	125	192	0
TAP	125	192	7
TAP	125	288	1
TAP	126	0	2
TAP	126	96	3
TAP	126	96	4
STR	126	192	5
SI_	126	192	5	96	192	0
STR	127	192	1
SI_	127	192	1	96	192	4
TAP	128	192	5
TAP	128	240	5
TAP	128	288	5
TAP	129	0	2
TAP	129	48	2
TAP	129	96	2
BST	129	192	3
SXR	129	192	3	96	480	0
BST	129	192	4
SXL	129	192	4	96	480	7
TTP	131	288	0	C	1	L1
TTP	131	288	2	B	0	L1
TTP	131	288	5	B	0	L1
TAP	134	240	0
TAP	134	240	7
TAP	134	288	0
TAP	134	288	7
TAP	134	336	0
TAP	134	336	7
TAP	135	48	1
TAP	135	48	6
TAP	135	96	1
TAP	135	96	6
BRK	135	144	1
BRK	135	144	6

T_REC_TAP	359
T_REC_BRK	6
T_REC_XTP	32
T_REC_HLD	50
T_REC_XHO	0
T_REC_STR	6
T_REC_BST	8
T_REC_XST	2
T_REC_TTP	44
T_REC_THO	1
T_REC_SLD	16
T_REC_ALL	524
T_NUM_TAP	443
T_NUM_BRK	14
T_NUM_HLD	51
T_NUM_SLD	16
T_NUM_ALL	524
T_JUDGE_TAP	457
T_JUDGE_HLD	128
T_JUDGE_SLD	16
T_JUDGE_ALL	601
TTM_EACHPAIRS	134
TTM_SCR_TAP	221500
TTM_SCR_BRK	36400
TTM_SCR_HLD	51000
TTM_SCR_SLD	24000
TTM_SCR_ALL	332900
TTM_SCR_S	321600
TTM_SCR_SS	331500
TTM_RAT_ACV	10042

