VERSION	0.00.00	1.03.00
FES_MODE	0
BPM_DEF	222.000	222.000	222.000	222.000
MET_DEF	4	4
RESOLUTION	384
CLK_DEF	384
COMPATIBLE_CODE	MA2

BPM	0	0	222.000
MET	0	0	4	4

TAP	5	0	0
TAP	6	0	0
TAP	7	0	7
TAP	8	0	7
HLD	9	0	0	384
HLD	9	0	7	384
TAP	11	0	0
TAP	12	0	1
TAP	13	0	2
TAP	14	0	3
TAP	14	0	4
TAP	15	0	4
TAP	16	0	5
TAP	17	0	6
TAP	18	0	0
TAP	18	0	7
TAP	19	0	7
TAP	20	0	6
TAP	21	0	5
TAP	22	0	4
TAP	22	192	4
TAP	23	0	3
TAP	24	0	2
TAP	25	0	1
TAP	26	0	0
TAP	26	0	7
BRK	27	0	0
BRK	27	0	7
TAP	29	0	0
XTP	29	96	0
TAP	29	192	0
TAP	30	0	1
TAP	30	192	1
TAP	31	0	2
TAP	31	192	2
TAP	32	0	3
TAP	32	192	3
TAP	33	0	4
TAP	33	192	4
TAP	34	0	5
TAP	34	192	5
TAP	35	0	6
TAP	35	192	6
TAP	36	0	0
TAP	36	0	7
TAP	37	0	7
TAP	37	192	7
TAP	38	0	6
TAP	38	192	6
TAP	39	0	5
TAP	39	192	5
TAP	40	0	3
TAP	40	0	4
TAP	40	192	3
TAP	40	192	4
TAP	41	0	2
TAP	41	192	2
TAP	42	0	1
TAP	42	192	1
TAP	43	0	0
TAP	43	0	7
TAP	43	192	0
TAP	43	192	7
BRK	44	0	0
BRK	44	0	7
TAP	45	0	1
TAP	45	192	1
TAP	46	0	0
TAP	46	0	1
TAP	47	0	6
TAP	47	192	6
TAP	48	0	6
TAP	48	0	7
TAP	49	0	5
TAP	49	192	5
TAP	50	0	4
TAP	50	0	5
TAP	51	0	2
TAP	51	192	2
TAP	52	0	2
TAP	52	0	3
BRK	53	0	3
BRK	53	0	4
TTP	55	0	0	C	1	L1
HLD	57	0	0	384
HLD	57	0	7	384
TAP	59	0	0
TAP	59	0	7
TAP	59	192	1
TAP	59	288	1
TAP	60	0	1
TAP	60	192	2
TAP	60	288	2
TAP	61	0	2
TAP	61	192	3
TAP	61	288	3
TAP	62	0	3
TAP	62	192	4
TAP	62	288	4
TAP	63	0	4
TAP	63	192	5
TAP	63	288	5
TAP	64	0	5
TAP	64	192	6
TAP	64	288	6
TAP	65	0	6
TAP	65	192	7
TAP	65	288	7
TAP	66	0	7
TAP	66	192	0
TAP	66	288	0
TAP	67	0	0
TAP	67	0	7
TAP	67	192	6
TAP	67	288	6
TAP	68	0	6
TAP	68	192	5
TAP	68	288	5
TAP	69	0	5
TAP	69	192	4
TAP	69	288	4
TAP	70	0	4
TAP	70	192	3
TAP	70	288	3
TAP	71	0	3
TAP	71	192	2
TAP	71	288	2
TAP	72	0	2
TAP	72	192	1
TAP	72	288	1
TAP	73	0	1
TAP	73	192	0
TAP	73	288	0
TAP	74	0	0
TAP	74	192	7
TAP	74	288	7
TAP	75	0	0
TAP	75	0	7
TAP	75	192	6
TAP	75	288	6
TAP	76	0	6
TAP	76	96	6
TAP	76	192	7
TAP	76	288	7
TAP	77	0	0
TAP	77	0	7
TAP	77	192	1
TAP	77	288	1
TAP	78	0	1
TAP	78	96	1
TAP	78	192	0
TAP	78	288	0
TAP	79	0	0
TAP	79	0	7
BRK	79	192	1
BRK	79	192	6
THO	81	192	0	576	C	0	L1
XST	84	192	0
SI_	84	192	0	96	288	3
XST	86	192	4
SI_	86	192	4	96	288	7
STR	88	192	0
SI_	88	192	0	96	288	4
STR	90	192	5
SI_	90	192	5	96	288	1
TAP	92	192	0
TAP	93	0	0
TAP	93	192	1
TAP	94	0	1
TAP	94	192	2
TAP	95	0	2
TAP	95	192	2
TAP	95	192	3
TAP	96	192	4
TAP	97	0	4
TAP	97	192	5
TAP	98	0	5
TAP	98	192	6
TAP	99	0	6
TAP	99	192	6
TAP	99	192	7
TTP	100	192	0	B	0	L1
TTP	101	192	7	B	0	L1
TTP	102	192	1	B	0	L1
TTP	103	192	6	B	0	L1
TTP	104	192	2	B	0	L1
TTP	105	192	5	B	0	L1
TTP	106	192	3	B	0	L1
TTP	107	192	4	B	0	L1
THO	108	192	0	864	C	1	L1
XHO	112	192	0	384
XHO	112	192	7	384
TAP	114	192	0
TAP	114	288	0
TAP	115	0	0
TAP	115	192	1
TAP	115	288	1
TAP	116	0	1
TAP	116	192	2
TAP	116	288	2
TAP	117	0	2
TAP	117	192	3
TAP	117	192	4
TAP	117	288	3
TAP	117	288	4
TAP	118	0	3
TAP	118	0	4
TAP	118	192	5
TAP	118	288	5
TAP	119	0	5
TAP	119	192	6
TAP	119	288	6
TAP	120	0	6
TAP	120	192	7
TAP	120	288	7
TAP	121	0	7
TAP	121	192	0
TAP	121	192	7
TAP	121	288	0
TAP	121	288	7
TAP	122	0	0
TAP	122	0	7
TAP	122	192	6
TAP	122	288	6
TAP	123	0	5
TAP	123	96	5
TAP	123	192	4
TAP	123	288	4
TAP	124	0	3
TAP	124	0	4
TAP	124	192	2
TAP	124	288	2
TAP	125	0	1
TAP	125	96	1
TAP	125	192	0
TAP	125	288	0
TAP	126	0	0
TAP	126	0	7
TAP	126	192	1
TAP	126	288	1
TAP	127	0	2
TAP	127	96	2
TAP	127	192	3
TAP	127	288	3
TAP	128	0	4
TAP	128	96	4
TAP	128	192	5
TAP	128	288	5
TAP	129	0	6
TAP	129	96	6
XST	129	192	0
SI_	129	192	0	96	288	3
XST	129	192	7
SI_	129	192	7	96	288	4
THO	131	288	0	480	C	0	L1
XTP	134	240	0
XTP	134	240	7
XTP	134	336	0
XTP	134	336	7
XTP	135	48	1
XTP	135	48	6
XTP	135	144	1
XTP	135	144	6

T_REC_TAP	216
T_REC_BRK	8
T_REC_XTP	9
T_REC_HLD	4
T_REC_XHO	2
T_REC_STR	2
T_REC_BST	0
T_REC_XST	4
T_REC_TTP	9
T_REC_THO	3
T_REC_SLD	6
T_REC_ALL	263
T_NUM_TAP	240
T_NUM_BRK	8
T_NUM_HLD	9
T_NUM_SLD	6
T_NUM_ALL	263
T_JUDGE_TAP	248
T_JUDGE_HLD	88
T_JUDGE_SLD	6
T_JUDGE_ALL	342
TTM_EACHPAIRS	39
TTM_SCR_TAP	120000
TTM_SCR_BRK	20800
TTM_SCR_HLD	9000
TTM_SCR_SLD	9000
TTM_SCR_ALL	158800
TTM_SCR_S	153300
TTM_SCR_SS	158000
TTM_RAT_ACV	10050

