VERSION	0.00.00	1.03.00
FES_MODE	0
BPM_DEF	174.000	174.000	174.000	174.000
MET_DEF	4	4
RESOLUTION	384
CLK_DEF	384
COMPATIBLE_CODE	MA2

BPM	0	0	174.000
MET	0	0	4	4
MET	2	0	4	7
MET	9	0	4	1
MET	9	96	4	4
MET	33	96	4	3
MET	37	288	4	2
MET	39	96	4	1
MET	39	192	4	3
MET	50	0	4	7
MET	51	288	4	4
MET	61	288	4	1
MET	62	0	4	3
MET	63	192	4	7
MET	67	0	4	3

XTP	2	0	0
XTP	2	0	7
TAP	2	96	6
STR	2	192	5
SCR	2	192	5	96	48	7
TAP	2	288	4
TAP	3	0	3
TAP	3	96	2
TAP	3	144	3
TAP	3	192	1
XTP	3	288	0
XTP	3	288	7
TAP	4	0	1
STR	4	96	2
SCL	4	96	2	96	48	0
TAP	4	192	3
TAP	4	288	4
TAP	5	0	5
TAP	5	48	4
STR	5	96	6
SI_	5	96	6	96	48	2
BRK	5	192	0
BRK	5	192	6
TAP	6	0	2
TAP	6	48	2
TAP	6	96	3
TAP	6	144	1
TAP	6	192	5
TAP	6	240	5
TAP	6	288	4
TAP	6	336	6
TAP	7	0	3
TAP	7	48	4
TAP	7	96	2
TAP	7	144	2
TAP	7	192	3
TAP	7	240	1
TAP	7	288	5
TAP	7	336	5
TAP	8	0	4
TAP	8	48	6
TAP	8	96	2
TAP	8	144	2
TAP	8	192	3
TAP	8	240	1
STR	8	288	0
SI_	8	288	0	96	48	3
STR	8	288	7
SI_	8	288	7	96	48	4
TAP	8	336	0
TAP	8	336	7
TTP	9	96	0	C	1	M1
TTP	9	96	1	B	0	M1
TTP	9	96	6	B	0	M1
HLD	9	336	3	96
HLD	9	336	5	96
HLD	10	96	3	192
HLD	10	96	5	192
XTP	10	336	2
XTP	10	336	6
XST	11	24	2
SLL	11	24	2	96	120	4
XTP	11	24	6
HLD	11	96	7	192
HLD	11	336	4	96
HLD	11	336	6	96
HLD	12	96	3	96
HLD	12	96	5	96
HLD	12	240	2	72
TAP	12	240	4
TAP	12	312	3
TAP	12	336	2
TAP	13	0	1
STR	13	0	4
SXL	13	0	4	96	144	3
HLD	13	96	0	192
HLD	13	336	1	96
HLD	13	336	3	96
HLD	14	96	2	192
HLD	14	96	4	192
XTP	14	336	1
XTP	14	336	5
XTP	15	24	1
XST	15	24	5
SLR	15	24	5	96	120	3
HLD	15	96	0	192
HLD	15	336	1	96
HLD	15	336	3	96
HLD	16	96	2	96
HLD	16	96	4	96
TAP	16	240	1
TAP	16	240	5
STR	16	288	2
SI_	16	288	2	96	48	5
STR	16	288	6
SI_	16	288	6	96	48	1
TAP	16	336	3
TAP	16	336	7
BRK	17	96	7
HLD	17	192	1	96
STR	17	192	5
SI_	17	192	5	96	48	0
TAP	17	336	2
TAP	18	0	3
TAP	18	0	4
TAP	18	48	5
TAP	18	72	4
HLD	18	96	6	96
TAP	18	192	7
TAP	18	264	4
TAP	18	264	5
TAP	18	336	2
TAP	18	336	3
TAP	19	0	1
TAP	19	0	4
HLD	19	96	5	48
TAP	19	144	3
HLD	19	168	5	48
TAP	19	216	3
HLD	19	240	6	48
TAP	19	288	4
HLD	19	312	7	48
TAP	19	360	5
TAP	20	0	5
TAP	20	24	6
TAP	20	48	4
HLD	20	96	2	48
TAP	20	144	4
HLD	20	168	2	48
TAP	20	216	4
HLD	20	240	1	48
TAP	20	288	3
HLD	20	312	0	48
TAP	20	360	2
TAP	21	0	2
TAP	21	24	1
TAP	21	48	3
TAP	21	72	2
STR	21	96	4
SCR	21	96	4	96	48	7
STR	21	192	0
SI_	21	192	0	96	48	4
TAP	21	192	4
TAP	21	288	0
TAP	21	288	7
TAP	21	336	6
TAP	22	0	3
TAP	22	0	5
TAP	22	48	2
TAP	22	72	3
HLD	22	96	1	96
TAP	22	192	0
TAP	22	264	2
TAP	22	264	3
TAP	22	336	4
TAP	22	336	5
TAP	23	0	3
TAP	23	0	6
TAP	23	48	1
TAP	23	48	4
XTP	23	96	2
TAP	23	120	3
TAP	23	144	2
TAP	23	168	3
XTP	23	192	2
TAP	23	216	3
TAP	23	240	2
TAP	23	264	3
XTP	23	288	1
TAP	23	312	4
TAP	23	336	1
TAP	23	360	4
XTP	24	0	0
TAP	24	24	7
TAP	24	48	0
TAP	24	72	7
XTP	24	96	4
TAP	24	120	5
TAP	24	144	4
TAP	24	168	5
XTP	24	192	4
TAP	24	216	5
TAP	24	240	4
TAP	24	264	5
XTP	24	288	3
TAP	24	312	6
TAP	24	336	3
TAP	24	360	6
XST	25	0	0
SF_	25	0	0	96	48	4
TAP	25	24	7
TAP	25	48	0
TAP	25	72	7
TAP	25	192	2
TAP	25	192	6
TAP	25	240	5
TAP	25	264	4
TAP	25	312	6
TAP	25	336	7
TAP	26	0	2
TAP	26	24	3
TAP	26	48	1
TAP	26	96	5
TAP	26	120	4
TAP	26	144	5
TAP	26	168	4
TAP	26	192	6
TAP	26	216	3
TAP	26	240	6
HLD	26	264	3	72
TAP	26	336	5
TAP	27	0	2
STR	27	0	4
SCR	27	0	4	96	144	3
TAP	27	48	1
TAP	27	48	3
TTP	27	96	0	C	1	M1
XTP	27	336	3
XTP	27	336	4
XTP	28	0	2
XTP	28	0	5
TAP	28	48	6
TAP	28	72	6
TAP	28	96	4
TAP	28	144	3
TAP	28	144	5
TAP	28	192	3
TAP	28	192	5
TAP	28	240	2
TAP	28	264	3
HLD	28	288	1	144
HLD	28	360	6	72
XTP	29	72	1
XTP	29	72	6
XHO	29	120	3	24
XHO	29	120	4	24
TAP	29	192	2
TAP	29	192	5
TAP	29	240	6
TAP	29	264	4
TAP	29	288	5
STR	29	336	1
SI_	29	336	1	96	48	5
TAP	30	0	1
STR	30	48	7
SI_	30	48	7	96	48	3
TAP	30	96	7
STR	30	144	2
SI_	30	144	2	96	48	6
TAP	30	192	2
TAP	30	240	5
TAP	30	288	5
HLD	30	336	0	96
XTP	31	48	4
TAP	31	96	1
TAP	31	120	3
TAP	31	144	1
TAP	31	168	3
TAP	31	192	1
TAP	31	216	3
TAP	31	240	1
TAP	31	264	3
TAP	31	288	2
TAP	31	312	4
TAP	31	336	2
TAP	31	360	4
TAP	32	0	2
TAP	32	24	4
TAP	32	48	2
TAP	32	72	4
TAP	32	96	3
TAP	32	120	5
TAP	32	144	3
TAP	32	168	5
TAP	32	192	4
TAP	32	216	6
TAP	32	240	4
TAP	32	264	6
TAP	32	288	3
TAP	32	312	5
TAP	32	336	2
TAP	32	360	4
TAP	33	0	1
TAP	33	24	3
TAP	33	48	0
TAP	33	72	0
TAP	33	120	5
TAP	33	144	4
TAP	33	192	2
TAP	33	216	3
TAP	33	264	1
TAP	33	264	4
TAP	33	336	0
TAP	33	336	7
HLD	34	0	0	72
TAP	34	0	7
HLD	34	72	2	72
TAP	34	144	3
TAP	34	192	4
TAP	34	216	4
TAP	34	312	2
TAP	34	336	3
TAP	35	0	5
TAP	35	24	4
TAP	35	72	3
TAP	35	72	6
TAP	35	144	0
TAP	35	144	7
TAP	35	192	0
HLD	35	192	7	72
HLD	35	264	5	72
TAP	35	336	4
TAP	36	0	3
TAP	36	24	3
TAP	36	120	5
TAP	36	144	4
TAP	36	192	2
TAP	36	216	3
TAP	36	264	1
TAP	36	264	4
TAP	36	336	0
TAP	36	336	7
HLD	37	0	0	72
TAP	37	0	7
HLD	37	72	2	72
TAP	37	144	3
TAP	37	192	4
TAP	37	216	4
TAP	37	312	6
TAP	37	336	7
TAP	38	0	5
TAP	38	24	4
BRK	38	72	2
BRK	38	72	3
TAP	38	120	1
TAP	38	144	0
TAP	38	192	2
TAP	38	216	3
BRK	38	264	4
BRK	38	264	5
TAP	38	312	6
TAP	38	336	7
TAP	39	0	5
TAP	39	24	4
TAP	39	72	2
HLD	39	96	3	96
TTP	39	192	0	C	1	M1
TAP	39	288	7
TAP	40	0	7
XST	40	48	0
SUR	40	48	0	96	48	4
XST	40	96	0
SI_	40	96	0	96	48	5
TAP	40	288	7
XTP	40	336	1
XTP	40	360	2
XTP	41	0	3
TAP	41	0	7
TAP	41	96	7
TTP	41	144	4	B	0	M1
TTP	41	144	4	E	0	M1
HLD	41	192	6	288
TTP	41	240	2	B	0	M1
TTP	41	240	2	E	0	M1
XTP	41	288	0
TAP	41	336	0
TAP	42	0	1
TAP	42	48	2
TAP	42	96	3
HLD	42	144	3	240
STR	42	192	7
SI_	42	192	7	96	48	2
STR	42	288	7
SI_	42	288	7	96	48	5
TAP	43	0	7
STR	43	96	4
SXR	43	96	4	96	48	2
STR	43	192	4
SXL	43	192	4	96	48	6
TAP	43	288	4
TAP	44	0	0
TAP	44	96	0
TAP	44	192	2
TAP	44	192	5
TAP	44	240	6
XTP	44	288	4
TAP	44	288	7
XTP	45	0	2
TAP	45	0	7
XTP	45	96	0
TAP	45	96	7
BRK	45	192	2
BRK	45	192	5
TAP	45	288	0
TAP	46	0	0
XST	46	48	7
SUL	46	48	7	96	48	3
XST	46	96	7
SI_	46	96	7	96	48	2
TAP	46	288	0
XTP	46	336	6
XTP	46	360	5
TAP	47	0	0
XTP	47	0	4
TAP	47	96	0
TTP	47	144	3	B	0	M1
TTP	47	144	4	E	0	M1
HLD	47	192	1	288
TTP	47	240	5	B	0	M1
TTP	47	240	6	E	0	M1
XTP	47	288	7
XTP	47	336	7
TAP	48	0	6
TAP	48	48	5
TAP	48	96	4
TAP	48	144	3
XST	48	192	0
SI_	48	192	0	96	48	5
HLD	48	192	3	192
XTP	48	240	0
XST	48	288	0
SI_	48	288	0	96	48	2
XTP	49	0	0
XST	49	96	4
SI_	49	96	4	96	48	6
XTP	49	144	4
XST	49	192	4
SI_	49	192	4	96	48	2
XTP	49	288	4
XTP	49	336	5
XTP	50	0	1
XTP	50	0	6
XTP	50	48	1
XTP	50	48	6
TAP	50	96	5
TAP	50	120	4
TAP	50	144	3
TAP	50	168	2
TAP	50	192	3
TAP	50	216	4
TAP	50	240	5
TAP	50	264	6
STR	50	288	0
SI_	50	288	0	96	48	4
STR	50	288	7
SI_	50	288	7	96	48	3
TAP	50	336	2
TAP	50	336	5
XTP	51	0	0
XTP	51	0	7
TAP	51	144	3
TAP	51	144	4
TAP	51	168	2
TAP	51	168	5
STR	51	192	1
SI_	51	192	1	96	48	5
STR	51	192	6
SI_	51	192	6	96	48	1
TAP	51	240	1
TAP	51	240	6
BST	51	288	1
SCL	51	288	1	96	96	4
BRK	51	288	6
TAP	52	0	3
TAP	52	48	3
TAP	52	144	2
XTP	52	192	1
XTP	52	192	4
TAP	52	288	2
TAP	52	288	6
TAP	52	336	5
STR	53	0	4
SI_	53	0	4	96	48	7
TAP	53	48	4
STR	53	96	4
SCL	53	96	4	96	48	1
TAP	53	144	3
STR	53	192	4
SCR	53	192	4	96	48	7
TAP	53	240	5
XTP	53	288	1
XTP	53	312	2
XHO	53	336	3	48
TAP	54	48	2
TAP	54	72	3
TAP	54	96	4
STR	54	144	1
SI_	54	144	1	96	48	5
TAP	54	192	3
BRK	54	240	1
STR	54	240	4
SI_	54	240	4	96	48	7
STR	54	336	3
SI_	54	336	3	96	48	0
BRK	54	336	4
BRK	55	48	3
XHO	55	48	7	96
XTP	55	144	0
TAP	55	192	1
TAP	55	240	2
STR	55	240	5
SLR	55	240	5	96	48	1
TAP	55	336	4
TAP	56	0	4
STR	56	48	3
SCL	56	48	3	96	48	0
TAP	56	144	5
TAP	56	192	5
STR	56	240	6
SLR	56	240	6	96	48	2
TAP	56	336	3
TAP	57	0	3
STR	57	48	4
SI_	57	48	4	96	48	0
TAP	57	144	4
STR	57	144	7
SCL	57	144	7	96	48	4
HLD	57	240	0	96
TAP	57	240	7
TAP	57	336	4
TAP	58	0	5
TAP	58	48	6
TAP	58	96	7
STR	58	144	3
SI_	58	144	3	96	48	7
TAP	58	192	2
STR	58	240	1
SI_	58	240	1	96	48	5
BRK	58	240	3
BRK	58	336	1
STR	58	336	4
SF_	58	336	4	96	48	0
BRK	59	48	4
XTP	59	144	1
XTP	59	144	7
XTP	59	192	2
XTP	59	192	6
TAP	59	240	3
TAP	59	252	4
TAP	59	264	5
TAP	59	276	6
TAP	59	288	7
TAP	59	300	0
TAP	59	312	1
TAP	59	324	2
TAP	59	336	3
TAP	59	348	4
TAP	59	360	5
TAP	59	372	6
TTP	60	0	0	C	1	M1
XTP	60	0	7
XTP	60	96	0
XTP	60	96	7
XST	60	144	1
SI_	60	144	1	96	48	7
XTP	60	144	6
HLD	60	240	5	96
STR	60	336	4
SCL	60	336	4	96	48	1
SCR	60	336	4	96	48	7
XTP	61	48	4
XTP	61	144	1
XTP	61	144	7
XTP	61	192	2
XTP	61	192	6
XTP	61	240	3
XTP	61	240	5
BRK	61	288	0
TTP	62	0	3	B	0	M1
TTP	62	0	3	E	0	M1
BRK	62	0	5
BRK	62	72	2
TTP	62	72	4	B	0	M1
TTP	62	72	5	E	0	M1
TTP	62	144	3	B	0	M1
TTP	62	144	4	E	0	M1
BRK	62	144	7
BRK	62	216	0
TTP	62	216	4	B	0	M1
TTP	62	216	5	B	0	M1
TTP	62	288	2	B	0	M1
TTP	62	288	2	E	0	M1
BRK	62	288	6
BRK	62	360	1
TTP	62	360	5	B	0	M1
TTP	62	360	5	E	0	M1
TTP	63	48	0	B	0	M1
TTP	63	48	1	E	0	M1
BRK	63	48	4
TTP	63	120	0	E	0	M1
BRK	63	120	3
TTP	63	120	7	B	0	M1
STR	63	192	5
SCR	63	192	5	96	48	7
TAP	63	216	4
TAP	63	240	3
TAP	63	336	2
TAP	64	0	2
TAP	64	48	1
TAP	64	48	3
TAP	64	96	1
TAP	64	96	3
STR	64	144	0
SXL	64	144	0	96	144	3
TAP	64	144	4
TAP	64	240	5
TAP	64	288	5
TAP	64	336	6
TAP	65	0	6
TAP	65	48	7
STR	65	96	7
SXR	65	96	7	96	144	4
TAP	65	192	3
TAP	65	240	3
TAP	65	288	2
TAP	65	336	1
TAP	66	0	0
TAP	66	48	4
STR	66	96	5
SI_	66	96	5	96	48	2
XTP	66	144	3
XTP	66	192	3
XTP	66	256	1
XTP	66	320	7
BRK	67	0	1
BRK	67	0	5
HLD	67	96	6	96
HLD	67	192	4	96
HLD	67	288	3	96
TAP	68	0	1
TAP	68	48	1
TAP	68	96	4
TAP	68	144	2
TAP	68	192	5
HLD	68	288	6	96
HLD	69	0	4	96
HLD	69	96	3	96
TAP	69	192	1
TAP	69	240	1
TAP	69	288	4
TAP	69	336	2
TTP	70	0	3	E	0	M1
TAP	70	0	5
TAP	70	48	6
TAP	70	96	7
TAP	70	144	0
TAP	70	192	1
TAP	70	240	2
TTP	70	288	3	E	0	M1
TAP	70	288	5
TAP	70	336	6
TAP	71	0	7
TAP	71	48	0
TAP	71	96	1
TAP	71	144	2
TTP	71	192	3	E	0	M1
HLD	71	192	5	12
HLD	71	240	6	12
HLD	71	288	7	12
HLD	71	336	0	12
HLD	72	0	1	12
HLD	72	48	2	12
TTP	72	96	3	E	0	M1
HLD	72	96	5	24
HLD	72	144	6	24
HLD	72	192	7	24
HLD	72	240	0	24
HLD	72	288	1	24
HLD	72	336	2	24
TAP	73	0	4
TAP	73	48	4
STR	73	96	4
SCR	73	96	4	96	48	6
XST	73	192	4
SXL	73	192	4	96	192	7
TAP	73	288	3
TAP	73	336	3
TAP	74	0	3
TAP	74	48	3
TAP	74	96	3
TAP	74	144	3
TAP	74	168	2
TAP	74	192	1
TAP	74	192	7
TAP	74	240	7
TAP	74	288	7
TAP	74	336	3
TAP	74	336	7
TAP	75	0	3
STR	75	0	7
SI_	75	0	7	96	48	5
TAP	75	96	2
STR	75	96	7
SI_	75	96	7	96	48	3
TAP	75	192	1
STR	75	192	7
SI_	75	192	7	96	48	4
TAP	75	288	0
TAP	76	0	1
TAP	76	48	1
TAP	76	96	1
TAP	76	144	2
TAP	76	144	4
TAP	76	192	3
TAP	76	240	4
TAP	76	288	5
STR	76	336	5
SSR	76	336	5	96	144	1
TAP	77	0	5
HLD	77	192	0	288
STR	77	288	7
SI_	77	288	7	96	48	3
TAP	77	336	3
STR	78	96	4
SI_	78	96	4	96	48	0
TAP	78	144	5
TTP	78	192	0	C	0	M1
STR	79	0	0
SI_	79	0	0	96	48	4
TTP	79	0	7	E	0	M1
TTP	79	144	6	E	0	M1
XTP	79	192	3
XTP	79	240	3
TTP	79	288	3	E	0	M1
STR	79	288	4
SI_	79	288	4	96	48	7
TTP	80	48	2	E	0	M1
XTP	80	96	1
XTP	80	144	1
TTP	80	192	1	E	0	M1
STR	80	192	7
SI_	80	192	7	96	48	4
TTP	80	336	0	E	0	M1
XTP	81	0	1
XTP	81	48	1
TTP	81	96	0	C	0	M1
STR	81	96	3
SCR	81	96	3	96	48	6
TTP	81	240	4	E	0	M1
TTP	82	0	1	E	0	M1
STR	82	0	7
SI_	82	0	7	96	48	3
TTP	82	144	2	E	0	M1
XTP	82	192	4
XTP	82	240	4
STR	82	288	3
SI_	82	288	3	96	48	0
TTP	82	288	5	E	0	M1
TTP	83	48	6	E	0	M1
XTP	83	96	6
XTP	83	144	6
STR	83	192	0
SI_	83	192	0	96	48	3
TTP	83	192	7	E	0	M1
TTP	83	336	0	E	0	M1
XTP	84	0	6
XTP	84	48	6
TTP	84	96	0	C	0	M1
STR	84	96	4
SCL	84	96	4	96	48	1
TTP	84	240	4	E	0	M1
STR	85	0	3
SI_	85	0	3	96	48	7
TTP	85	0	5	E	0	M1
TTP	85	144	6	E	0	M1
XTP	85	192	0
XTP	85	240	0
TTP	85	288	1	E	0	M1
STR	85	288	7
SI_	85	288	7	96	48	4
TTP	86	48	2	E	0	M1
XTP	86	96	2
XTP	86	144	2
TTP	86	192	3	E	0	M1
STR	86	192	4
SI_	86	192	4	96	48	7
TTP	86	336	4	E	0	M1
XTP	87	0	2
XTP	87	48	2
TTP	87	96	0	C	0	M1
STR	87	96	1
SCL	87	96	1	96	48	6
TTP	87	240	0	E	0	M1
TTP	88	0	3	E	0	M1
STR	88	0	4
SI_	88	0	4	96	48	0
TTP	88	144	2	E	0	M1
XTP	88	192	7
XTP	88	240	7
STR	88	288	0
SI_	88	288	0	96	48	3
TTP	88	288	7	E	0	M1
TTP	89	48	6	E	0	M1
XTP	89	96	5
XTP	89	144	5
STR	89	192	3
SI_	89	192	3	96	48	0
TTP	89	192	5	E	0	M1
TTP	89	336	4	E	0	M1
XTP	90	0	5
XTP	90	48	5
TTP	90	96	0	C	0	M1
STR	90	96	6
SCR	90	96	6	96	48	1
TTP	90	240	0	E	0	M1
STR	91	0	0
SI_	91	0	0	96	48	4
TAP	91	24	1
TAP	91	48	2
TAP	91	72	3
STR	91	96	4
SI_	91	96	4	96	48	1
SV_	91	96	4	96	48	7
STR	91	288	0
SI_	91	288	0	96	48	4
TAP	91	312	1
TAP	91	336	2
TAP	91	360	3
STR	92	0	4
SI_	92	0	4	96	48	0
SI_	92	0	4	96	48	6
STR	92	192	0
SI_	92	192	0	96	48	4
TAP	92	216	1
TAP	92	240	2
TAP	92	264	3
STR	92	288	4
SI_	92	288	4	96	48	1
SV_	92	288	4	96	48	7
STR	93	96	0
SI_	93	96	0	96	48	4
TAP	93	120	7
TAP	93	144	6
TAP	93	168	5
STR	93	192	4
SI_	93	192	4	96	48	1
SI_	93	192	4	96	48	7
STR	94	0	7
SI_	94	0	7	96	48	3
TAP	94	24	6
TAP	94	48	5
TAP	94	72	4
STR	94	96	3
SI_	94	96	3	96	48	6
SV_	94	96	3	96	48	0
STR	94	288	7
SI_	94	288	7	96	48	3
TAP	94	312	6
TAP	94	336	5
TAP	94	360	4
STR	95	0	3
SI_	95	0	3	96	48	1
SI_	95	0	3	96	48	7
STR	95	192	7
SI_	95	192	7	96	48	3
TAP	95	216	6
TAP	95	240	5
TAP	95	264	4
STR	95	288	3
SI_	95	288	3	96	48	6
SV_	95	288	3	96	48	0
STR	96	96	7
SI_	96	96	7	96	48	3
TAP	96	120	0
TAP	96	144	1
TAP	96	168	2
TAP	96	192	3
TAP	96	288	1
TAP	96	288	5
STR	97	0	4
SI_	97	0	4	96	48	0
TAP	97	24	5
TAP	97	48	6
TAP	97	72	7
STR	97	96	0
SI_	97	96	0	96	48	5
SV_	97	96	0	96	48	3
STR	97	288	4
SI_	97	288	4	96	48	0
TAP	97	312	5
TAP	97	336	6
TAP	97	360	7
STR	98	0	0
SI_	98	0	0	96	48	2
SI_	98	0	0	96	48	4
STR	98	192	4
SI_	98	192	4	96	48	0
TAP	98	216	5
TAP	98	240	6
TAP	98	264	7
STR	98	288	0
SI_	98	288	0	96	48	5
SV_	98	288	0	96	48	3
STR	99	96	4
SI_	99	96	4	96	48	0
TAP	99	120	3
TAP	99	144	2
TAP	99	168	1
STR	99	192	0
SI_	99	192	0	96	48	3
SI_	99	192	0	96	48	5
STR	100	0	3
SV_	100	0	3	96	48	6
TAP	100	24	2
TAP	100	48	1
TAP	100	72	0
XTP	100	96	7
XTP	100	144	7
XTP	100	192	7
XTP	100	240	7
STR	100	288	3
SI_	100	288	3	96	48	7
TAP	100	312	2
TAP	100	336	1
HLD	100	360	0	0
STR	101	0	7
SI_	101	0	7	96	48	3
SI_	101	0	7	96	48	5
STR	101	192	3
SI_	101	192	3	96	48	7
TAP	101	216	2
HLD	101	240	1	0
HLD	101	264	0	0
STR	101	288	7
SI_	101	288	7	96	48	4
SUR	101	288	7	96	48	3
TTP	102	96	2	B	0	M1
TTP	102	120	3	B	0	M1
TTP	102	144	5	B	0	M1
TTP	102	168	4	B	0	M1
THO	102	192	0	48	C	0	M1
STR	102	288	7
SI_	102	288	7	96	864	3
HLD	102	336	7	912

T_REC_TAP	431
T_REC_BRK	27
T_REC_XTP	99
T_REC_HLD	71
T_REC_XHO	4
T_REC_STR	94
T_REC_BST	1
T_REC_XST	13
T_REC_TTP	71
T_REC_THO	1
T_REC_SLD	122
T_REC_ALL	934
T_NUM_TAP	708
T_NUM_BRK	28
T_NUM_HLD	76
T_NUM_SLD	122
T_NUM_ALL	934
T_JUDGE_TAP	736
T_JUDGE_HLD	174
T_JUDGE_SLD	122
T_JUDGE_ALL	1032
TTM_EACHPAIRS	101
TTM_SCR_TAP	354000
TTM_SCR_BRK	72800
TTM_SCR_HLD	76000
TTM_SCR_SLD	183000
TTM_SCR_ALL	685800
TTM_SCR_S	662550
TTM_SCR_SS	683000
TTM_RAT_ACV	10040

