VERSION	0.00.00	1.03.00
FES_MODE	0
BPM_DEF	174.000	174.000	174.000	174.000
MET_DEF	4	4
RESOLUTION	384
CLK_DEF	384
COMPATIBLE_CODE	MA2

BPM	0	0	174.000
MET	0	0	4	4
MET	2	0	4	7
MET	9	0	4	1
MET	9	96	4	4
MET	33	96	4	3
MET	37	288	4	2
MET	39	96	4	1
MET	39	192	4	3
MET	50	0	4	7
MET	51	288	4	4
MET	61	288	4	1
MET	62	0	4	3
MET	63	192	4	7
MET	67	0	4	3

TTP	2	0	0	B	0	M1
TTP	2	0	0	C	1	M1
TTP	2	0	0	E	0	M1
TTP	2	0	3	B	0	M1
TTP	2	0	4	B	0	M1
TTP	2	0	4	E	0	M1
TTP	2	0	7	B	0	M1
STR	3	288	0
SSL	3	288	0	96	288	4
TAP	5	96	2
TAP	5	96	6
BRK	5	192	2
BRK	5	192	6
TAP	6	192	5
TAP	6	288	4
TAP	7	0	5
BRK	7	96	2
BRK	7	96	6
TAP	8	0	3
TAP	8	48	3
TAP	8	96	4
TAP	8	144	4
TAP	8	192	2
TAP	8	240	2
TAP	8	288	5
TAP	8	336	5
TAP	9	0	4
BRK	9	96	1
HLD	9	96	7	240
HLD	9	336	4	144
HLD	10	96	6	240
TAP	10	336	4
TAP	11	24	3
TAP	11	24	5
HLD	11	96	2	240
TAP	11	96	4
HLD	11	336	3	144
HLD	12	96	1	144
TAP	12	240	3
TAP	12	336	2
TAP	12	336	4
TAP	13	0	2
TAP	13	0	4
TAP	13	96	1
HLD	13	96	7	240
HLD	13	336	4	144
HLD	14	96	6	240
TAP	14	336	4
TAP	15	24	3
TAP	15	24	5
HLD	15	96	2	240
TAP	15	96	4
HLD	15	336	1	144
HLD	16	96	0	144
TAP	16	240	7
TAP	16	336	1
TAP	16	336	5
TAP	17	0	1
TAP	17	0	5
XTP	17	96	0
XTP	17	192	4
XTP	17	192	6
TAP	17	288	2
TAP	17	336	3
TAP	18	0	1
TAP	18	0	4
TAP	18	96	7
HLD	18	192	6	72
HLD	18	264	5	72
TAP	18	336	4
TAP	19	0	4
TAP	19	96	0
TAP	19	192	2
TAP	19	192	3
TAP	19	288	5
TAP	19	336	4
TAP	20	0	3
TAP	20	0	6
TAP	20	96	0
HLD	20	192	1	72
HLD	20	264	2	72
TAP	20	336	3
TAP	21	0	3
TAP	21	96	4
TAP	21	96	5
TAP	21	192	7
TAP	21	288	5
TAP	21	336	4
TAP	22	0	3
TAP	22	0	6
TAP	22	96	0
HLD	22	192	5	72
HLD	22	264	6	72
TAP	22	336	7
TAP	23	0	7
TAP	23	96	0
TAP	23	96	6
TAP	23	192	2
TAP	23	192	3
TAP	23	288	5
TAP	23	336	4
STR	24	0	3
SCL	24	0	3	96	96	0
TAP	24	192	7
XTP	24	264	0
XTP	24	264	6
XTP	24	336	1
XTP	24	336	5
XTP	25	0	1
XST	25	0	5
SI_	25	0	5	96	48	1
BRK	25	192	0
TAP	25	336	1
TAP	25	336	7
TAP	26	0	1
TAP	26	0	7
TAP	26	96	2
TAP	26	96	3
HLD	26	192	5	72
HLD	26	264	6	72
TAP	26	336	7
TAP	27	0	7
TAP	27	96	0
TAP	27	96	6
TAP	27	192	4
TAP	27	192	5
TAP	27	288	3
TAP	27	336	2
TAP	28	0	1
TAP	28	0	3
TAP	28	96	7
HLD	28	192	6	72
HLD	28	264	5	72
TAP	28	336	4
TAP	29	0	4
XTP	29	96	1
XTP	29	96	7
XTP	29	144	1
XTP	29	144	7
BRK	29	192	2
BRK	29	192	6
TAP	29	288	4
TAP	29	336	4
TAP	30	0	3
TAP	30	0	5
TAP	30	96	0
TAP	30	96	7
HLD	30	192	1	72
HLD	30	264	2	72
TAP	30	336	3
TAP	31	0	3
TAP	31	96	2
TAP	31	96	4
TAP	31	192	0
TAP	31	192	7
TAP	31	288	4
TAP	31	288	5
TAP	31	336	6
STR	32	0	7
SF_	32	0	7	96	96	3
XTP	32	288	1
XTP	32	288	5
XTP	33	0	7
XTP	33	48	7
XHO	33	120	0	48
XHO	33	192	1	24
XHO	33	192	7	24
XHO	33	264	2	48
XHO	33	264	6	48
XTP	33	336	3
XTP	33	336	5
TAP	34	0	4
TAP	34	48	4
TAP	34	96	3
TAP	34	144	2
TAP	34	192	5
TAP	34	240	4
TAP	34	240	6
XHO	34	312	7	48
XHO	35	0	0	24
XHO	35	0	6	24
XHO	35	72	1	48
XHO	35	72	5	48
XTP	35	144	2
XTP	35	144	4
TAP	35	192	3
TAP	35	240	3
TAP	35	288	4
TAP	35	336	5
TAP	36	0	0
TAP	36	48	1
TAP	36	48	7
XHO	36	120	6	48
XHO	36	192	5	24
XHO	36	192	7	24
XHO	36	264	0	48
XHO	36	264	4	48
XTP	36	336	1
XTP	36	336	3
TAP	37	0	2
TAP	37	48	2
TAP	37	96	3
TAP	37	144	1
TAP	37	192	7
TAP	37	240	0
TAP	37	240	6
XHO	37	312	5	48
XHO	38	0	4	24
XHO	38	0	6	24
XTP	38	72	3
XTP	38	72	7
XHO	38	120	0	48
XHO	38	120	2	48
XHO	38	192	1	24
XHO	38	192	3	24
XTP	38	264	2
XTP	38	264	4
XHO	38	312	5	48
XHO	39	0	4	24
XHO	39	0	6	24
XHO	39	72	3	24
XHO	39	72	7	24
BRK	39	192	1
BRK	39	192	5
TAP	40	0	4
TAP	40	48	4
STR	40	96	3
SI_	40	96	3	96	96	7
TAP	40	192	5
STR	40	288	6
SCR	40	288	6	96	96	1
TAP	41	0	0
TAP	41	144	2
TAP	41	192	2
TAP	41	240	3
TAP	41	288	2
TAP	41	336	4
TAP	42	0	1
TAP	42	48	5
TAP	42	96	0
TAP	42	144	6
STR	42	192	6
SUL	42	192	6	96	96	2
HLD	43	0	1	288
TAP	43	96	0
TAP	43	192	2
HLD	43	288	3	192
TAP	44	0	2
TAP	44	96	2
TAP	44	192	1
TAP	44	240	1
TAP	44	288	3
TAP	45	0	2
TAP	45	0	3
TAP	45	96	1
TAP	45	96	4
BRK	45	192	0
BRK	45	192	6
TAP	46	0	3
TAP	46	48	3
STR	46	96	4
SI_	46	96	4	96	96	0
TAP	46	192	2
STR	46	288	1
SCL	46	288	1	96	96	6
TAP	47	0	7
TAP	47	144	5
TAP	47	192	5
TAP	47	240	4
TAP	47	288	5
TAP	47	336	3
TAP	48	0	6
TAP	48	48	2
TAP	48	96	7
TAP	48	144	1
STR	48	192	1
SCL	48	192	1	96	96	6
HLD	49	0	5	96
HLD	49	96	3	96
HLD	49	192	1	96
TAP	49	288	7
BRK	50	0	0
BRK	50	0	6
BRK	50	48	0
BRK	50	48	6
TTP	51	0	0	C	1	M1
XTP	51	144	0
XTP	51	144	7
XTP	51	192	0
XST	51	192	7
SI_	51	192	7	96	48	3
STR	51	288	2
SCL	51	288	2	96	96	5
BRK	52	0	4
XTP	52	144	7
XTP	52	192	7
TAP	52	288	3
TAP	52	288	5
TAP	52	336	4
TAP	53	0	2
TAP	53	48	1
STR	53	96	0
SI_	53	96	0	96	48	4
TAP	53	144	0
STR	53	192	6
SI_	53	192	6	96	48	1
TAP	53	240	6
TAP	53	288	3
TAP	54	0	2
TAP	54	48	2
TAP	54	96	3
TAP	54	144	1
TAP	54	192	0
BST	54	240	7
SI_	54	240	7	96	48	2
SI_	54	240	7	96	48	4
BRK	55	48	1
BRK	55	48	5
TAP	55	144	0
TAP	55	144	4
TAP	55	192	0
TAP	55	192	4
TAP	55	288	2
TAP	56	0	4
TAP	56	0	6
TAP	56	48	4
HLD	56	48	6	96
TAP	56	144	7
STR	56	192	7
SI_	56	192	7	96	48	1
STR	56	288	6
SI_	56	288	6	96	48	2
TAP	57	0	3
STR	57	48	3
SI_	57	48	3	96	48	0
TAP	57	144	4
HLD	57	240	6	96
TAP	57	336	7
TAP	58	0	7
TAP	58	48	0
TAP	58	48	6
TAP	58	96	1
TAP	58	96	5
TAP	58	144	2
TAP	58	192	3
BST	58	240	1
SI_	58	240	1	96	48	4
BST	58	240	4
SI_	58	240	4	96	48	0
BRK	59	48	3
BRK	59	48	7
TAP	59	144	2
TAP	59	144	6
TAP	59	192	2
TAP	59	192	6
TAP	59	288	3
TAP	59	288	4
BRK	60	0	0
BRK	60	0	6
TAP	60	96	2
TAP	60	144	2
TAP	60	240	0
HLD	60	240	1	96
HLD	60	336	6	96
HLD	61	48	4	96
TAP	61	144	3
STR	61	192	3
SI_	61	192	3	96	48	7
BRK	62	0	0
BRK	62	0	6
XTP	62	72	4
XTP	62	72	5
XTP	62	144	1
XTP	62	144	2
XTP	62	216	5
XTP	62	216	7
BRK	62	288	2
BRK	62	288	3
XTP	62	360	1
XTP	62	360	7
XTP	63	48	5
XTP	63	48	6
XTP	63	120	2
XTP	63	120	3
STR	63	192	0
SI_	63	192	0	96	48	4
TAP	63	288	6
STR	63	336	6
SI_	63	336	6	96	48	1
TAP	64	48	3
STR	64	144	2
SCR	64	144	2	96	48	5
TAP	64	240	6
TAP	64	288	6
TAP	64	336	7
TAP	65	0	0
TAP	65	48	1
STR	65	96	2
SI_	65	96	2	96	48	7
TAP	65	192	5
TAP	65	240	5
TAP	65	288	0
TAP	65	336	1
STR	66	0	2
SI_	66	0	2	96	48	7
TAP	66	0	3
TAP	66	96	6
TAP	66	144	6
XTP	66	192	0
XTP	66	192	6
XTP	66	256	4
XTP	66	256	5
XTP	66	320	1
XTP	66	320	3
TTP	67	0	0	C	1	M1
TTP	67	0	2	B	0	M1
TTP	67	0	3	B	0	M1
TTP	67	0	5	B	0	M1
TTP	67	0	6	B	0	M1
STR	68	192	7
SCL	68	192	7	96	96	4
TAP	69	0	3
STR	69	96	2
SCL	69	96	2	96	96	7
TAP	69	288	6
STR	70	0	5
SCL	70	0	5	96	96	2
TAP	70	192	1
STR	70	288	0
SCL	70	288	0	96	96	5
TAP	71	96	4
STR	71	192	3
SCL	71	192	3	96	96	0
TAP	72	0	7
STR	72	96	6
SCL	72	96	6	96	96	3
TAP	72	288	2
BRK	73	0	1
BRK	73	0	4
TAP	73	192	2
TAP	73	240	1
STR	73	288	0
SI_	73	288	0	96	96	4
TAP	74	96	5
TAP	74	144	6
STR	74	192	7
SI_	74	192	7	96	96	3
TAP	75	0	2
TAP	75	48	1
STR	75	96	0
SI_	75	96	0	96	96	5
TAP	75	288	3
TAP	75	336	4
STR	76	0	5
SI_	76	0	5	96	96	1
TAP	76	192	4
TAP	76	240	3
STR	76	288	2
SI_	76	288	2	96	96	6
STR	77	96	7
SF_	77	96	7	96	48	3
TTP	77	204	0	C	1	M1
BRK	78	192	0
HLD	79	0	5	96
HLD	79	144	5	96
HLD	79	288	4	96
HLD	79	288	6	96
HLD	80	48	4	96
HLD	80	48	6	96
TAP	80	192	3
HLD	80	192	5	96
HLD	80	336	2	96
TAP	80	336	4
HLD	81	96	1	96
HLD	81	96	3	96
TTP	81	240	1	B	0	M1
TTP	81	240	3	B	0	M1
HLD	82	0	2	96
HLD	82	144	2	96
HLD	82	288	1	96
HLD	82	288	3	96
HLD	83	48	1	96
HLD	83	48	3	96
HLD	83	192	2	96
TAP	83	192	4
TAP	83	336	3
HLD	83	336	5	96
HLD	84	96	4	96
HLD	84	96	6	96
TTP	84	240	4	B	0	M1
TTP	84	240	6	B	0	M1
HLD	85	0	5	96
HLD	85	144	4	96
HLD	85	144	6	96
HLD	85	288	2	96
HLD	85	288	5	96
HLD	86	48	1	96
HLD	86	48	3	96
TAP	86	192	3
HLD	86	192	4	96
HLD	86	336	4	96
TAP	86	336	5
HLD	87	96	5	96
HLD	87	96	6	96
TTP	87	240	5	B	0	M1
TTP	87	240	6	B	0	M1
HLD	88	0	7	96
HLD	88	144	0	96
HLD	88	144	6	96
HLD	88	288	1	96
HLD	88	288	5	96
HLD	89	48	2	96
HLD	89	48	4	96
HLD	89	192	3	96
TAP	89	192	5
TAP	89	336	2
HLD	89	336	3	96
HLD	90	96	3	96
TAP	90	96	6
XTP	90	240	4
XTP	90	240	5
TAP	90	312	3
TAP	90	312	4
BST	91	0	2
SI_	91	0	2	96	48	7
XTP	91	0	3
TAP	91	192	5
STR	91	288	6
SI_	91	288	6	96	48	3
TAP	91	288	7
TAP	92	96	1
STR	92	192	2
SI_	92	192	2	96	48	7
TAP	92	192	4
TAP	93	0	6
TAP	93	96	4
TAP	93	96	5
TAP	93	192	3
TAP	93	192	4
TAP	93	288	1
TAP	93	288	3
BST	94	0	0
SI_	94	0	0	96	48	4
TAP	94	96	5
TAP	94	192	3
BST	94	288	7
SI_	94	288	7	96	48	3
TAP	95	0	2
TAP	95	96	4
BST	95	192	1
SI_	95	192	1	96	48	4
TAP	95	288	0
TAP	96	0	5
BRK	96	96	6
BRK	96	96	7
TAP	96	192	4
TAP	96	192	5
TAP	96	288	2
TAP	96	288	3
BST	97	0	1
SI_	97	0	1	96	48	5
STR	97	96	7
SI_	97	96	7	96	48	3
TAP	97	192	4
BST	97	288	6
SI_	97	288	6	96	48	2
STR	98	0	0
SI_	98	0	0	96	48	4
TAP	98	96	3
BST	98	192	1
SI_	98	192	1	96	48	6
BST	98	288	5
SI_	98	288	5	96	48	2
TAP	99	0	0
BRK	99	96	1
BRK	99	96	3
TAP	99	192	4
TAP	99	192	5
TAP	99	288	2
TAP	99	288	6
BST	100	0	7
SI_	100	0	7	96	48	2
BST	100	96	0
SI_	100	96	0	96	48	5
BST	100	192	6
SI_	100	192	6	96	48	3
BST	100	288	1
SI_	100	288	1	96	48	4
BST	101	0	5
SI_	101	0	5	96	48	0
BST	101	96	2
SI_	101	96	2	96	48	7
BST	101	192	4
SI_	101	192	4	96	48	1
BST	101	288	0
SI_	101	288	0	96	48	5
BST	102	0	7
SI_	102	0	7	96	48	3
BST	102	96	1
SXR	102	96	1	96	1032	3
BST	102	192	6
SUL	102	192	6	96	936	4

T_REC_TAP	271
T_REC_BRK	34
T_REC_XTP	52
T_REC_HLD	75
T_REC_XHO	27
T_REC_STR	37
T_REC_BST	22
T_REC_XST	2
T_REC_TTP	20
T_REC_THO	0
T_REC_SLD	62
T_REC_ALL	602
T_NUM_TAP	382
T_NUM_BRK	56
T_NUM_HLD	102
T_NUM_SLD	62
T_NUM_ALL	602
T_JUDGE_TAP	438
T_JUDGE_HLD	207
T_JUDGE_SLD	62
T_JUDGE_ALL	707
TTM_EACHPAIRS	130
TTM_SCR_TAP	191000
TTM_SCR_BRK	145600
TTM_SCR_HLD	102000
TTM_SCR_SLD	93000
TTM_SCR_ALL	531600
TTM_SCR_S	510250
TTM_SCR_SS	526000
TTM_RAT_ACV	10106

