VERSION	0.00.00	1.03.00
FES_MODE	0
BPM_DEF	174.000	174.000	174.000	174.000
MET_DEF	4	4
RESOLUTION	384
CLK_DEF	384
COMPATIBLE_CODE	MA2

BPM	0	0	174.000
MET	0	0	4	4
MET	2	0	4	7
MET	9	0	4	1
MET	9	96	4	4
MET	33	96	4	3
MET	37	288	4	2
MET	39	96	4	1
MET	39	192	4	3
MET	50	0	4	7
MET	51	288	4	4
MET	61	288	4	1
MET	62	0	4	3
MET	63	192	4	7
MET	67	0	4	3

STR	2	0	1
SXL	2	0	1	96	480	5
STR	3	288	6
SXR	3	288	6	96	480	2
TAP	5	192	1
TAP	6	0	0
TAP	6	192	7
TAP	7	0	0
TAP	7	0	7
XTP	7	96	0
XTP	7	96	7
TAP	7	288	6
TAP	8	96	5
TAP	8	192	3
TAP	8	192	4
TAP	8	288	3
TAP	8	288	4
HLD	9	96	2	240
HLD	9	96	3	240
HLD	10	96	3	240
HLD	10	96	4	240
HLD	11	96	4	240
HLD	11	96	5	240
HLD	12	96	3	144
HLD	12	96	4	144
TAP	12	336	2
TAP	12	336	5
XHO	13	96	4	240
HLD	14	96	2	240
HLD	14	96	3	240
HLD	15	96	3	240
HLD	15	96	4	240
TAP	16	96	3
TAP	16	96	4
TAP	16	240	2
TAP	16	240	5
TAP	16	336	2
TAP	16	336	5
XTP	17	96	6
TAP	17	192	6
TAP	17	288	4
TAP	17	288	5
TAP	18	96	2
TAP	18	192	2
TAP	18	288	2
TAP	18	288	3
TAP	19	96	5
TAP	19	192	5
TAP	19	288	4
TAP	20	0	4
TAP	20	96	3
TAP	20	192	3
TAP	20	288	2
TAP	20	288	4
TAP	21	96	1
TAP	21	192	1
TAP	21	288	0
TAP	21	288	1
TAP	22	96	6
TAP	22	192	6
TAP	22	288	6
TAP	22	288	7
TAP	23	96	1
TAP	23	192	1
TAP	23	288	0
TAP	24	0	0
TAP	24	96	7
TAP	24	192	0
TAP	24	192	7
TAP	24	288	1
TAP	24	288	6
TAP	25	96	5
BRK	25	192	5
TAP	25	288	4
TAP	26	0	4
TAP	26	96	5
TAP	26	192	4
TAP	26	288	3
TAP	26	288	6
TAP	27	96	2
TAP	27	192	2
TAP	27	288	3
TAP	28	0	3
TAP	28	96	2
TAP	28	192	3
TAP	28	288	1
TAP	28	288	4
XTP	29	96	1
TAP	29	192	1
TAP	29	288	0
TAP	30	0	0
TAP	30	96	1
TAP	30	192	0
TAP	30	288	2
TAP	30	288	7
TAP	31	96	6
TAP	31	192	5
TAP	31	288	4
TAP	32	0	3
TAP	32	96	2
TAP	32	192	1
TAP	32	288	0
STR	32	288	7
SSR	32	288	7	96	384	3
TAP	34	96	2
STR	34	192	2
SSR	34	192	2	96	384	6
TAP	36	0	5
STR	36	96	5
SSL	36	96	5	96	384	1
XHO	37	312	2	96
XHO	38	120	4	96
XHO	38	312	3	96
XHO	38	312	5	96
TTP	39	192	6	E	0	L1
TTP	39	288	5	B	0	L1
TTP	40	0	4	B	0	L1
TTP	40	192	2	E	0	L1
TTP	40	288	2	B	0	L1
TTP	41	0	3	B	0	L1
TTP	41	192	6	B	0	L1
TTP	41	288	5	B	0	L1
TTP	42	0	5	E	0	L1
TTP	42	192	1	B	0	L1
TTP	42	288	2	B	0	L1
TTP	43	0	3	E	0	L1
TTP	43	192	6	B	0	L1
TTP	43	288	5	B	0	L1
TTP	44	0	4	B	0	L1
TTP	44	96	3	B	0	L1
TTP	44	192	2	B	0	L1
TTP	44	288	1	B	0	L1
TTP	45	0	1	E	0	L1
TTP	45	192	6	E	0	L1
TTP	45	288	5	B	0	L1
TTP	46	0	4	B	0	L1
TTP	46	192	2	E	0	L1
TTP	46	288	2	B	0	L1
TTP	47	0	3	B	0	L1
XTP	47	192	6
XTP	47	288	5
XTP	48	0	4
TAP	48	96	3
TAP	48	192	2
TAP	48	240	2
TAP	48	288	2
TAP	49	0	1
TAP	49	48	1
TAP	49	96	1
TAP	49	192	0
TAP	49	192	7
TAP	49	288	0
TAP	49	288	7
XTP	50	0	1
XTP	50	0	6
XTP	50	48	1
XTP	50	48	6
TTP	51	0	0	C	1	L1
BRK	51	288	6
TAP	52	0	6
TAP	52	96	6
TAP	52	96	7
TAP	52	192	6
TAP	52	192	7
TAP	52	288	1
TAP	53	0	1
TAP	53	96	0
TAP	53	96	1
TAP	53	192	0
TAP	53	192	1
TAP	53	288	2
TAP	54	0	2
TAP	54	96	3
TAP	54	192	3
XTP	54	288	4
XTP	55	0	4
XTP	55	96	3
XTP	55	96	5
TAP	55	288	2
TAP	56	0	2
TAP	56	96	2
TAP	56	96	3
TAP	56	288	5
TAP	57	0	5
TAP	57	96	4
TAP	57	96	5
TAP	57	288	3
TAP	58	0	3
TAP	58	96	4
TAP	58	192	4
XTP	58	288	3
XTP	58	288	4
XTP	59	0	2
XTP	59	0	5
XTP	59	96	1
XTP	59	96	6
TAP	59	288	5
TAP	60	0	5
TAP	60	96	4
TAP	60	96	5
TAP	60	192	4
TAP	60	192	5
TAP	60	288	2
TAP	61	0	2
TAP	61	96	2
TAP	61	96	3
TAP	61	192	4
STR	61	288	1
SLR	61	288	1	96	384	7
STR	61	288	5
SLL	61	288	5	96	384	7
TAP	63	192	6
TAP	63	288	6
TAP	63	288	7
TAP	64	0	6
TAP	64	96	6
TAP	64	96	7
TAP	64	192	5
TAP	64	288	4
TAP	65	0	3
TAP	65	96	2
TAP	65	192	3
TAP	65	288	2
TAP	65	288	3
TAP	66	0	4
TAP	66	48	4
TAP	66	96	4
TAP	66	192	3
TAP	66	240	3
TAP	66	288	3
BST	67	0	2
SLL	67	0	2	96	336	4
BST	67	0	5
SLR	67	0	5	96	336	3
STR	68	192	2
SUL	68	192	2	96	288	3
STR	70	0	5
SUR	70	0	5	96	288	4
HLD	71	192	2	288
TAP	72	96	3
TAP	72	288	3
TAP	72	288	4
TAP	73	0	3
STR	73	0	4
SUL	73	0	4	96	288	7
STR	74	192	0
SUL	74	192	0	96	288	3
STR	76	0	4
SUL	76	0	4	96	288	7
STR	77	192	0
SSL	77	192	0	96	336	4
HLD	79	0	5	192
TAP	79	192	4
TAP	79	288	4
TAP	79	288	5
TAP	80	96	2
TAP	80	96	3
TAP	80	192	2
TAP	80	192	3
TAP	81	0	4
TAP	81	0	5
TAP	81	96	4
TAP	81	96	5
TAP	81	192	3
TAP	81	192	6
HLD	82	0	2	192
TAP	82	192	3
TAP	82	288	2
TAP	82	288	3
TAP	83	96	4
TAP	83	96	5
TAP	83	192	4
TAP	83	192	5
TAP	84	0	3
TAP	84	0	4
TAP	84	96	3
TAP	84	96	4
TAP	84	192	2
TAP	84	192	5
HLD	85	0	1	192
TAP	85	192	0
TAP	85	288	0
TAP	85	288	1
TAP	86	96	6
TAP	86	96	7
TAP	86	192	6
TAP	86	192	7
TAP	87	0	0
TAP	87	0	1
TAP	87	96	0
TAP	87	96	1
TAP	87	192	2
TAP	87	192	7
HLD	88	0	6	192
TAP	88	192	7
TAP	88	288	6
TAP	88	288	7
TAP	89	96	0
TAP	89	96	1
TAP	89	192	0
TAP	89	192	1
TAP	90	0	0
TAP	90	0	7
TAP	90	96	0
TAP	90	96	7
TAP	90	192	1
TAP	90	192	6
TAP	91	0	5
TAP	91	96	4
TAP	91	192	4
TAP	91	192	5
TAP	91	288	3
TAP	92	0	4
TAP	92	96	3
TAP	92	96	4
TAP	92	192	2
TAP	92	288	3
TAP	93	0	2
TAP	93	0	3
TAP	93	96	1
TAP	93	96	4
TAP	94	0	1
TAP	94	96	0
TAP	94	192	0
TAP	94	192	1
TAP	94	288	7
TAP	95	0	0
TAP	95	96	0
TAP	95	96	7
TAP	95	192	6
TAP	95	288	7
TAP	96	0	6
TAP	96	0	7
TAP	96	96	0
TAP	96	96	5
TAP	97	0	6
TAP	97	96	7
TAP	97	192	6
TAP	97	192	7
TAP	97	288	0
TAP	98	0	7
TAP	98	96	0
TAP	98	96	7
TAP	98	192	1
TAP	98	288	0
TAP	99	0	0
TAP	99	0	1
TAP	99	96	2
TAP	99	96	7
TAP	100	0	2
TAP	100	0	3
TAP	100	96	2
TAP	100	144	2
TAP	100	192	2
TAP	100	288	4
TAP	100	288	5
TAP	101	0	5
TAP	101	48	5
TAP	101	96	5
TAP	101	192	3
TAP	101	192	4
TAP	101	288	2
TAP	101	288	5
TAP	101	336	2
TAP	101	336	5
TAP	102	0	2
TAP	102	0	5
STR	102	96	1
SXL	102	96	1	96	480	7
STR	102	96	6
SXR	102	96	6	96	480	0

T_REC_TAP	266
T_REC_BRK	2
T_REC_XTP	21
T_REC_HLD	17
T_REC_XHO	5
T_REC_STR	15
T_REC_BST	2
T_REC_XST	0
T_REC_TTP	26
T_REC_THO	0
T_REC_SLD	17
T_REC_ALL	371
T_NUM_TAP	328
T_NUM_BRK	4
T_NUM_HLD	22
T_NUM_SLD	17
T_NUM_ALL	371
T_JUDGE_TAP	332
T_JUDGE_HLD	91
T_JUDGE_SLD	17
T_JUDGE_ALL	440
TTM_EACHPAIRS	93
TTM_SCR_TAP	164000
TTM_SCR_BRK	10400
TTM_SCR_HLD	22000
TTM_SCR_SLD	25500
TTM_SCR_ALL	221900
TTM_SCR_S	214900
TTM_SCR_SS	221500
TTM_RAT_ACV	10018

