VERSION	0.00.00	1.03.00
FES_MODE	0
BPM_DEF	174.000	174.000	174.000	174.000
MET_DEF	4	4
RESOLUTION	384
CLK_DEF	384
COMPATIBLE_CODE	MA2

BPM	0	0	174.000
MET	0	0	4	4
MET	2	0	4	7
MET	9	0	4	1
MET	9	96	4	4
MET	33	96	4	3
MET	37	288	4	2
MET	39	96	4	1
MET	39	192	4	3
MET	50	0	4	7
MET	51	288	4	4
MET	61	288	4	1
MET	62	0	4	3
MET	63	192	4	7
MET	67	0	4	3

XHO	2	0	3	384
XHO	4	0	4	576
THO	7	96	0	384	C	0	L1
XHO	9	96	6	384
XHO	9	96	7	384
XHO	11	96	4	384
XHO	11	96	5	384
XHO	13	96	2	384
XHO	13	96	3	384
XHO	15	96	0	384
XHO	15	96	1	384
XTP	17	96	7
XTP	17	288	7
TAP	18	96	6
TAP	18	288	6
TAP	19	96	5
TAP	19	288	5
TAP	20	96	3
TAP	20	96	4
TAP	20	288	3
TAP	20	288	4
TAP	21	96	3
TAP	21	288	3
TAP	22	96	2
TAP	22	288	2
TAP	23	96	1
TAP	23	288	1
TAP	24	96	0
TAP	24	288	0
XTP	25	96	0
XTP	25	96	7
XTP	25	288	0
XTP	25	288	7
TAP	26	96	1
TAP	26	288	1
TAP	27	96	2
TAP	27	288	2
TAP	28	96	3
TAP	28	96	4
TAP	28	288	3
TAP	28	288	4
XTP	29	96	4
XTP	29	288	4
TAP	30	96	5
TAP	30	288	5
TAP	31	96	6
TAP	31	288	6
XTP	32	96	0
XTP	32	96	7
XST	33	120	7
SI_	33	120	7	96	240	4
XST	34	312	3
SI_	34	312	3	96	240	0
XST	36	120	7
SI_	36	120	7	96	240	4
XST	37	312	3
SI_	37	312	3	96	240	0
XTP	39	192	0
XTP	39	192	7
XTP	40	0	6
TAP	40	96	6
TAP	40	192	6
TAP	41	0	5
TAP	41	96	5
TAP	41	192	5
TAP	42	0	3
TAP	42	0	4
TAP	42	192	3
TAP	42	192	4
TAP	43	0	2
TAP	43	96	2
TAP	43	192	2
TAP	44	0	1
TAP	44	96	1
TAP	44	192	1
TAP	45	0	0
TAP	45	0	7
XTP	45	192	0
XTP	45	192	7
TAP	46	0	1
TAP	46	96	1
TAP	46	192	1
TAP	47	0	2
TAP	47	96	2
TAP	47	192	2
TAP	48	0	3
TAP	48	96	3
TAP	48	192	3
TAP	48	192	4
TAP	49	0	5
TAP	49	96	5
TAP	49	192	5
BRK	50	0	6
BRK	50	0	7
TAP	51	0	0
TAP	51	96	0
TAP	51	192	7
TAP	51	288	7
XTP	52	0	0
XTP	52	0	7
TAP	52	192	6
TAP	53	0	5
TAP	53	96	5
TAP	53	192	5
TAP	54	0	4
TAP	54	96	4
TAP	54	192	4
TAP	55	0	3
TAP	55	96	3
TAP	55	192	3
TAP	55	192	4
TAP	56	0	2
TAP	56	96	2
TAP	56	192	2
TAP	57	0	1
TAP	57	96	1
TAP	57	192	1
TAP	58	0	0
TAP	58	96	0
TAP	58	192	0
TAP	59	0	7
TAP	59	96	7
TAP	59	192	0
TAP	59	192	7
BRK	60	0	1
TAP	60	96	1
TAP	60	192	1
TAP	61	0	2
TAP	61	96	2
STR	61	192	2
SI_	61	192	2	96	384	6
TAP	63	192	7
TAP	63	288	7
TAP	64	0	0
TAP	64	96	0
TAP	64	192	1
TAP	64	288	1
TAP	65	0	2
TAP	65	96	2
TAP	65	192	3
TAP	65	288	3
TAP	66	0	4
TAP	66	96	4
TAP	66	192	3
TAP	66	288	3
STR	67	0	3
SI_	67	0	3	96	288	0
STR	67	0	4
SI_	67	0	4	96	288	7
TAP	69	96	0
TAP	69	192	0
TAP	69	288	0
STR	70	0	0
SI_	70	0	0	96	288	3
STR	70	0	7
SI_	70	0	7	96	288	4
TAP	72	96	4
TAP	72	192	4
TAP	72	288	4
BRK	73	0	3
BRK	73	0	4
TAP	73	192	5
TAP	73	288	5
TAP	74	96	6
TAP	74	192	6
TAP	75	0	7
TAP	75	96	7
TAP	75	288	0
TAP	76	0	0
TAP	76	192	1
TAP	76	288	1
TAP	77	96	2
TAP	77	96	3
BRK	77	192	2
BRK	77	192	3
XST	79	0	4
SI_	79	0	4	96	288	7
TAP	81	96	0
TAP	81	192	0
TAP	81	288	1
STR	82	0	1
SI_	82	0	1	96	288	5
TAP	84	96	6
TAP	84	192	6
TAP	84	288	7
STR	85	0	7
SI_	85	0	7	96	288	2
TAP	87	96	1
TAP	87	192	1
TAP	87	288	2
STR	88	0	2
SI_	88	0	2	96	288	6
TAP	90	96	7
TAP	90	192	7
TAP	90	288	7
BRK	91	0	0
BRK	91	0	7
TAP	91	192	6
TAP	91	288	6
TAP	92	0	6
TAP	92	192	4
TAP	92	192	5
TAP	93	0	3
TAP	93	96	3
TAP	93	192	3
TAP	94	0	2
TAP	94	0	3
TAP	94	192	1
TAP	94	288	1
TAP	95	0	1
TAP	95	192	0
TAP	95	192	1
TAP	96	0	7
TAP	96	96	7
TAP	96	192	7
XTP	97	0	0
XTP	97	0	7
TAP	97	192	1
TAP	97	288	1
TAP	98	0	1
TAP	98	192	2
TAP	98	192	3
TAP	99	0	4
TAP	99	96	4
TAP	99	192	3
TAP	99	192	4
XHO	100	0	3	288
XHO	100	0	4	288
TTP	101	192	3	B	0	L1
TTP	101	192	4	B	0	L1
THO	102	96	0	1152	C	0	L1
TTP	102	96	2	B	0	L1
TTP	102	96	5	B	0	L1

T_REC_TAP	161
T_REC_BRK	9
T_REC_XTP	19
T_REC_HLD	0
T_REC_XHO	12
T_REC_STR	8
T_REC_BST	0
T_REC_XST	5
T_REC_TTP	4
T_REC_THO	2
T_REC_SLD	13
T_REC_ALL	233
T_NUM_TAP	197
T_NUM_BRK	9
T_NUM_HLD	14
T_NUM_SLD	13
T_NUM_ALL	233
T_JUDGE_TAP	206
T_JUDGE_HLD	128
T_JUDGE_SLD	13
T_JUDGE_ALL	347
TTM_EACHPAIRS	34
TTM_SCR_TAP	98500
TTM_SCR_BRK	23400
TTM_SCR_HLD	14000
TTM_SCR_SLD	19500
TTM_SCR_ALL	155400
TTM_SCR_S	149900
TTM_SCR_SS	154500
TTM_RAT_ACV	10058

