VERSION	0.00.00	1.03.00
FES_MODE	0
BPM_DEF	191.000	191.000	191.000	191.000
MET_DEF	4	4
RESOLUTION	384
CLK_DEF	384
COMPATIBLE_CODE	MA2

BPM	0	0	191.000
MET	0	0	4	4

HLD	1	0	3	96
TAP	1	96	4
HLD	1	144	3	96
STR	1	240	4
SUL	1	240	4	96	384	3
XTP	1	288	3
HLD	3	0	2	96
TAP	3	96	3
HLD	3	144	2	96
TAP	3	240	3
XST	3	288	2
SUR	3	288	2	96	336	3
HLD	5	0	4	96
TAP	5	96	3
HLD	5	144	4	96
STR	5	240	3
SUR	5	240	3	96	384	4
XTP	5	288	4
HLD	7	0	5	96
TAP	7	96	3
HLD	7	144	5	96
TAP	7	240	3
TTP	7	288	0	C	0	M1
TAP	8	240	7
TAP	8	264	0
TAP	8	288	7
TAP	8	312	0
TAP	8	336	7
TAP	8	360	0
XHO	9	0	6	96
TAP	9	144	4
HLD	9	144	5	96
STR	9	288	4
SCR	9	288	4	96	192	0
TAP	9	288	5
XTP	10	192	4
HLD	11	0	1	96
HLD	11	144	2	96
TAP	11	144	3
TAP	11	288	2
STR	11	288	3
SCL	11	288	3	96	192	7
XTP	12	192	3
TAP	12	288	3
HLD	13	0	4	96
TAP	13	96	3
HLD	13	144	4	96
TAP	13	240	2
HLD	13	288	4	96
TAP	14	0	1
HLD	14	48	4	96
TAP	14	144	0
TAP	14	192	0
STR	14	240	5
SXL	14	240	5	96	624	3
TAP	14	288	2
BRK	14	336	3
TAP	17	0	2
TAP	17	48	3
STR	17	96	1
SI_	17	96	1	96	48	4
TAP	17	96	4
TAP	17	192	4
STR	17	240	5
SI_	17	240	5	96	48	0
TAP	17	336	3
HLD	18	0	3	96
TAP	18	96	0
STR	18	144	0
SI_	18	144	0	96	48	4
TAP	18	240	2
STR	18	288	2
SI_	18	288	2	96	48	5
TAP	19	0	6
TAP	19	48	6
TAP	19	96	4
HLD	19	96	7	96
TAP	19	192	4
TAP	19	240	5
TAP	19	288	3
STR	19	288	6
SI_	19	288	6	96	48	2
TAP	19	336	2
TAP	20	0	1
TAP	20	48	1
TAP	20	96	0
TAP	20	96	3
STR	20	192	5
SCR	20	192	5	96	48	0
TAP	20	240	5
TAP	20	288	0
TAP	20	336	1
STR	21	0	2
SI_	21	0	2	96	48	4
TAP	21	96	5
STR	21	144	6
SI_	21	144	6	96	48	2
TAP	21	240	2
TAP	21	288	1
TAP	21	336	0
TAP	22	0	7
TAP	22	48	4
STR	22	48	6
SI_	22	48	6	96	48	4
TAP	22	144	2
STR	22	192	2
SI_	22	192	2	96	48	6
TAP	22	240	1
STR	22	288	3
SI_	22	288	3	96	48	7
TAP	22	336	4
XTP	23	0	0
TAP	23	96	0
TAP	23	96	6
HLD	23	144	0	96
TAP	23	144	6
TAP	23	240	4
STR	23	288	5
SI_	23	288	5	96	48	3
HLD	24	0	2	384
BST	25	0	0
SCR	25	0	0	96	768	7
TTP	26	240	0	C	0	M1
STR	27	0	0
SCR	27	0	0	96	768	7
STR	29	0	0
SCR	29	0	0	96	768	7
THO	31	0	0	384	C	0	M1
STR	32	288	1
SI_	32	288	1	96	48	3
STR	32	288	6
SI_	32	288	6	96	48	4
XTP	33	0	1
XTP	33	0	6
XTP	33	96	2
XTP	33	96	5
TAP	33	192	3
STR	33	192	4
SI_	33	192	4	96	48	0
TAP	33	240	2
STR	33	288	1
SI_	33	288	1	96	48	4
TAP	33	336	1
STR	34	0	7
SI_	34	0	7	96	48	1
TAP	34	48	7
TAP	34	96	3
TAP	34	144	2
TAP	34	192	4
XST	34	240	5
SCR	34	240	5	96	48	0
TAP	34	336	2
XTP	35	0	2
TAP	35	96	7
TAP	35	144	6
TAP	35	192	3
TAP	35	192	5
TAP	35	240	2
TAP	35	288	4
TAP	35	336	5
STR	36	0	6
SI_	36	0	6	96	48	2
TAP	36	48	7
TAP	36	96	6
STR	36	144	0
SI_	36	144	0	96	48	4
STR	36	192	4
SI_	36	192	4	96	48	2
TAP	36	240	0
TAP	36	288	7
TAP	36	336	6
BST	37	0	5
SI_	37	0	5	96	48	0
SI_	37	0	5	96	48	3
XTP	37	192	0
XTP	37	192	3
TAP	37	288	2
TAP	37	288	4
STR	38	0	5
SI_	38	0	5	96	48	7
TAP	38	48	5
TAP	38	96	4
TAP	38	144	3
STR	38	192	2
SI_	38	192	2	96	48	0
TAP	38	240	2
TAP	38	288	7
TAP	38	336	6
STR	39	0	5
SI_	39	0	5	96	48	2
TAP	39	96	2
STR	39	192	1
SI_	39	192	1	96	48	5
TAP	39	288	5
STR	40	0	7
SI_	40	0	7	96	48	3
TAP	40	96	3
TAP	40	192	2
TAP	40	192	4
TAP	40	288	1
STR	40	288	5
SUL	40	288	5	96	96	0
BST	41	0	0
SCL	41	0	0	96	144	3
STR	41	144	3
SUR	41	144	3	96	144	0
TAP	41	288	2
TAP	42	0	1
HLD	42	48	1	144
TAP	42	192	0
STR	42	288	2
SCL	42	288	2	96	96	7
STR	43	0	7
SUR	43	0	7	96	96	3
STR	43	96	3
SUR	43	96	3	96	96	7
STR	43	192	7
SUL	43	192	7	96	96	2
STR	43	288	2
SUR	43	288	2	96	96	0
STR	44	0	0
SUL	44	0	0	96	120	1
TAP	44	96	4
TAP	44	288	0
TAP	44	288	4
TAP	45	0	1
STR	45	48	1
SCR	45	48	1	96	96	3
STR	45	144	3
SCR	45	144	3	96	96	6
STR	45	240	6
SCR	45	240	6	96	96	1
STR	45	336	1
SLR	45	336	1	96	96	5
TAP	46	48	5
TAP	46	96	6
TAP	46	144	6
TAP	46	240	1
TAP	46	240	7
TAP	46	288	1
STR	46	288	7
SCL	46	288	7	96	240	1
XTP	47	0	0
STR	47	144	1
SCL	47	144	1	96	120	6
TAP	47	288	3
TAP	48	0	4
HLD	48	48	4	144
TAP	48	192	5
TAP	48	288	4
TAP	48	288	5
STR	49	0	6
SLL	49	0	6	96	192	2
STR	49	96	4
SLL	49	96	4	96	192	0
TAP	49	240	0
STR	50	192	2
SLR	50	192	2	96	192	6
STR	50	288	4
SLR	50	288	4	96	192	0
STR	51	0	6
SLR	51	0	6	96	192	2
TAP	51	96	0
TAP	51	288	5
HLD	51	336	5	336
HLD	52	96	4	288
STR	53	0	6
SUL	53	0	6	96	144	0
STR	53	144	0
SCR	53	144	0	96	96	3
STR	53	240	3
SCR	53	240	3	96	96	6
STR	53	336	6
SCR	53	336	6	96	96	1
STR	54	48	1
SCR	54	48	1	96	96	4
TAP	54	144	4
TAP	54	240	6
TAP	54	336	0
TAP	54	336	4
STR	55	0	0
SXL	55	0	0	96	624	4
TAP	55	0	4
THO	56	336	0	816	C	0	M1
BST	59	0	7
SI_	59	0	7	96	48	2
SI_	59	0	7	96	48	4
XTP	59	192	1
XTP	59	192	5
TAP	59	240	2
HLD	59	264	4	48
TAP	59	312	3
HLD	59	336	5	48
TAP	60	0	4
HLD	60	24	6	48
TAP	60	72	3
TAP	60	96	7
TAP	60	144	0
TAP	60	144	2
TAP	60	192	1
TAP	60	240	6
XST	60	240	7
SI_	60	240	7	96	48	3
TAP	60	336	5
XST	61	0	5
SI_	61	0	5	96	48	2
TAP	61	96	0
TAP	61	192	1
TAP	61	216	3
TAP	61	240	1
TAP	61	264	3
TAP	61	288	1
TAP	61	336	5
TAP	61	360	4
TAP	62	0	5
TAP	62	24	4
TAP	62	48	5
XTP	62	96	3
XTP	62	96	6
TAP	62	144	7
TAP	62	192	4
TAP	62	192	6
TAP	62	240	5
TAP	62	288	3
TAP	62	288	4
TAP	62	336	2
TAP	62	360	2
BST	63	0	0
SV_	63	0	0	96	48	3
SV_	63	0	0	96	48	5
XTP	63	192	2
XTP	63	192	6
TAP	63	240	5
HLD	63	264	3	48
TAP	63	312	4
HLD	63	336	2	48
TAP	64	0	3
HLD	64	24	1	48
TAP	64	72	4
TAP	64	96	0
TAP	64	144	5
TAP	64	144	7
TAP	64	192	6
TAP	64	240	0
XST	64	240	2
SV_	64	240	2	96	48	7
TAP	64	336	5
XST	65	0	6
SV_	65	0	6	96	48	3
XTP	65	96	0
TAP	65	192	1
TAP	65	216	0
TAP	65	240	1
TAP	65	264	0
STR	65	288	1
SI_	65	288	1	96	48	4
TAP	65	336	7
BST	66	0	1
SSR	66	0	1	96	216	5
SLL	66	0	1	96	216	3
XST	67	0	2
SV_	67	0	2	96	48	0
XST	67	0	6
SV_	67	0	6	96	48	4
XTP	67	192	1
XTP	67	192	5
TAP	67	240	2
HLD	67	264	4	24
TAP	67	312	3
HLD	67	336	5	24
TAP	68	0	4
HLD	68	24	6	24
TAP	68	72	3
TAP	68	96	7
TAP	68	144	0
TAP	68	144	2
TAP	68	192	1
TAP	68	240	0
XST	68	240	6
SI_	68	240	6	96	48	3
TAP	68	336	7
XTP	69	0	0
XTP	69	48	1
XTP	69	48	4
XTP	69	96	5
XTP	69	144	5
HLD	69	192	3	24
HLD	69	192	6	48
HLD	69	264	3	48
HLD	69	264	6	24
TAP	69	336	4
TAP	69	336	5
TAP	70	0	3
TAP	70	0	6
BRK	70	48	2
BRK	70	48	7
BRK	70	96	0
BRK	70	96	1
TAP	70	144	2
TAP	70	144	7
STR	70	192	3
SI_	70	192	3	96	48	1
TAP	70	192	6
STR	70	288	5
SCL	70	288	5	96	48	3
TAP	70	336	6
BST	71	0	0
SI_	71	0	0	96	48	4
SI_	71	0	0	96	48	6
HLD	71	192	5	24
TAP	71	240	3
HLD	71	264	4	24
TAP	71	312	2
HLD	71	336	3	24
TAP	72	0	1
TAP	72	24	3
TAP	72	72	0
TAP	72	96	0
TAP	72	144	1
TAP	72	144	7
TAP	72	192	2
TAP	72	216	5
TAP	72	240	3
TAP	72	288	2
TAP	72	288	4
TAP	72	336	1
TAP	73	0	0
TAP	73	24	7
TAP	73	48	0
TAP	73	96	1
TAP	73	96	5
TAP	73	144	2
TAP	73	144	4
TAP	73	192	5
TAP	73	216	4
TAP	73	240	6
TAP	73	288	1
TAP	73	288	7
HLD	73	336	1	312
HLD	73	336	7	312
STR	74	288	1
SI_	74	288	1	96	48	4
STR	74	288	7
SI_	74	288	7	96	48	3
BRK	75	0	1
BRK	75	0	7
TTP	75	1	0	C	1	M1
TAP	75	96	0
TAP	75	96	7
TAP	75	144	1
STR	75	192	2
SI_	75	192	2	96	48	6
STR	75	288	7
SLR	75	288	7	96	96	5
TAP	76	0	4
TAP	76	48	4
TAP	76	144	3
STR	76	192	3
SUL	76	192	3	96	48	7
SUR	76	192	3	96	48	7
TAP	76	288	3
XST	77	0	0
SI_	77	0	0	96	48	2
XST	77	0	6
SI_	77	0	6	96	48	3
TAP	77	96	0
TAP	77	96	6
STR	77	192	0
SI_	77	192	0	96	48	3
STR	77	192	5
SI_	77	192	5	96	48	3
TAP	77	288	0
TAP	77	288	5
STR	78	0	0
SF_	78	0	0	96	48	4
TAP	78	0	1
BRK	78	96	0
XTP	78	240	3
XTP	78	240	5
XTP	78	288	2
XTP	78	288	6
STR	79	0	0
SCR	79	0	0	96	48	3
TAP	79	48	0
TAP	79	96	4
HLD	79	144	5	96
TAP	79	240	4
STR	79	288	6
SI_	79	288	6	96	48	4
TAP	79	336	7
TAP	80	0	6
STR	80	48	0
SI_	80	48	0	96	48	5
TAP	80	96	1
TAP	80	144	0
STR	80	192	1
SI_	80	192	1	96	48	4
STR	80	240	4
SLL	80	240	4	96	96	0
TAP	80	288	1
STR	80	288	5
SI_	80	288	5	96	48	7
BRK	81	0	5
XST	81	144	1
SLR	81	144	1	96	96	7
XTP	81	144	7
TAP	81	240	5
STR	81	288	6
SCL	81	288	6	96	48	3
TAP	82	0	0
TAP	82	0	6
STR	82	48	1
SI_	82	48	1	96	48	4
TAP	82	144	1
TAP	82	144	3
STR	82	192	5
SI_	82	192	5	96	48	1
STR	82	288	0
SCR	82	288	0	96	432	7
TAP	82	288	5
BRK	83	0	0
TTP	83	0	0	C	1	M1
BST	84	192	0
SI_	84	192	0	96	48	4
BST	84	192	7
SI_	84	192	7	96	48	3
TAP	84	208	1
TAP	84	208	6
TAP	84	224	2
TAP	84	224	5
TAP	84	240	3
TAP	84	240	4
BRK	84	288	0
BRK	84	288	7
XST	85	0	1
SV_	85	0	1	96	48	4
XST	85	0	5
SV_	85	0	5	96	48	0
BRK	85	96	1
BRK	85	96	5
TTP	85	97	0	C	1	M1
TAP	85	288	3
TAP	85	288	7
STR	85	336	1
SCR	85	336	1	96	132	7
TAP	85	336	5
TAP	86	48	4
HLD	86	96	4	96
XTP	86	192	0
XTP	86	204	1
XTP	86	216	2
XTP	86	228	3
XTP	86	240	4
XTP	86	252	5
XTP	86	264	6
XTP	86	276	7
BRK	86	288	0
TAP	87	0	1
TAP	87	0	7
STR	87	48	6
SCR	87	48	6	96	48	1
TAP	87	96	4
STR	87	144	3
SI_	87	144	3	96	48	7
TAP	87	240	3
STR	87	240	5
SCL	87	240	5	96	48	2
STR	87	336	0
SI_	87	336	0	96	48	4
TAP	87	336	5
TAP	88	48	0
STR	88	48	7
SI_	88	48	7	96	48	3
TAP	88	96	6
STR	88	144	1
SCL	88	144	1	96	48	6
TAP	88	144	7
TAP	88	240	1
STR	88	240	5
SCR	88	240	5	96	432	3
TTP	88	336	0	C	1	M1
BRK	88	336	5
TAP	90	192	3
TAP	90	216	4
TAP	90	240	2
TAP	90	264	5
TAP	90	288	1
TAP	90	312	6
TAP	90	336	0
TAP	90	360	7
BST	91	0	0
SF_	91	0	0	96	48	4
TAP	91	96	0
TAP	91	192	2
TAP	91	192	6
TAP	91	240	5
TAP	91	264	4
TAP	91	288	5
TAP	91	336	1
TAP	91	336	4
TAP	92	0	2
TAP	92	24	3
TAP	92	48	2
TAP	92	96	6
TAP	92	120	6
TAP	92	144	4
TAP	92	168	5
TAP	92	192	1
TAP	92	216	1
TAP	92	240	3
TAP	92	264	2
TAP	92	288	7
TAP	92	336	0
TAP	92	336	6
TAP	93	0	1
TAP	93	0	5
TAP	93	48	2
TAP	93	48	4
TAP	93	96	3
TAP	93	96	4
TAP	93	144	2
TAP	93	144	5
TAP	93	192	1
TAP	93	216	6
STR	93	240	0
SI_	93	240	0	96	48	5
TAP	93	264	7
TAP	93	288	1
TAP	93	312	6
BST	93	336	0
SSL	93	336	0	96	384	4
SLL	93	336	0	96	384	2

T_REC_TAP	293
T_REC_BRK	16
T_REC_XTP	40
T_REC_HLD	43
T_REC_XHO	1
T_REC_STR	87
T_REC_BST	11
T_REC_XST	14
T_REC_TTP	6
T_REC_THO	2
T_REC_SLD	119
T_REC_ALL	632
T_NUM_TAP	440
T_NUM_BRK	27
T_NUM_HLD	46
T_NUM_SLD	119
T_NUM_ALL	632
T_JUDGE_TAP	467
T_JUDGE_HLD	124
T_JUDGE_SLD	119
T_JUDGE_ALL	710
TTM_EACHPAIRS	91
TTM_SCR_TAP	220000
TTM_SCR_BRK	70200
TTM_SCR_HLD	46000
TTM_SCR_SLD	178500
TTM_SCR_ALL	514700
TTM_SCR_S	496650
TTM_SCR_SS	512000
TTM_RAT_ACV	10052

