VERSION	0.00.00	1.03.00
FES_MODE	0
BPM_DEF	191.000	191.000	191.000	191.000
MET_DEF	4	4
RESOLUTION	384
CLK_DEF	384
COMPATIBLE_CODE	MA2

BPM	0	0	191.000
MET	0	0	4	4

HLD	1	0	4	192
TAP	1	288	4
HLD	2	0	4	288
HLD	3	0	4	192
TAP	3	288	4
HLD	4	0	4	288
HLD	5	0	4	192
TAP	5	288	4
HLD	6	0	4	288
TAP	7	0	4
TAP	7	48	2
TAP	7	96	6
HLD	7	144	0	144
TAP	8	240	3
TAP	8	288	5
TAP	8	336	1
BST	9	0	7
SI_	9	0	7	96	48	3
XTP	9	144	0
XTP	9	288	2
XTP	9	288	5
TAP	10	192	5
TAP	10	240	5
TAP	10	288	4
TAP	10	336	3
HLD	11	0	2	144
TAP	11	144	4
TAP	11	288	1
TAP	11	288	5
TAP	12	48	0
TAP	12	48	6
STR	12	192	7
SCL	12	192	7	96	96	4
HLD	13	0	2	96
TAP	13	96	3
TAP	13	144	1
TAP	13	144	3
HLD	13	288	5	96
TAP	14	0	4
TAP	14	48	4
TAP	14	48	6
TAP	14	192	2
STR	14	240	2
SCL	14	240	2	96	624	3
TAP	14	288	3
HLD	17	0	2	96
TAP	17	0	4
TAP	17	96	4
TAP	17	144	3
HLD	17	144	5	96
TAP	17	240	3
HLD	17	288	4	96
TAP	17	288	6
STR	18	0	7
SI_	18	0	7	96	48	3
STR	18	96	0
SI_	18	96	0	96	48	2
STR	18	192	6
SI_	18	192	6	96	48	4
TAP	18	288	3
TAP	19	0	2
TAP	19	96	1
TAP	19	96	3
HLD	19	144	1	432
STR	19	144	3
SUR	19	144	3	96	192	4
TAP	20	192	3
TAP	20	288	4
TAP	21	0	3
HLD	21	0	5	96
TAP	21	96	3
HLD	21	144	2	96
TAP	21	144	4
TAP	21	240	4
TAP	21	288	1
HLD	21	288	3	96
STR	22	0	0
SI_	22	0	0	96	48	4
STR	22	96	7
SI_	22	96	7	96	48	5
STR	22	192	1
SI_	22	192	1	96	48	3
STR	22	288	4
SCR	22	288	4	96	288	3
HLD	24	0	0	384
THO	25	0	0	384	C	0	M1
TTP	26	240	1	B	0	M1
TTP	26	240	1	E	0	M1
TTP	26	240	2	B	0	M1
TTP	26	240	3	B	0	M1
TTP	26	240	3	E	0	M1
TTP	27	0	5	B	0	M1
TTP	27	0	5	E	0	M1
TTP	27	0	6	B	0	M1
TTP	27	0	7	B	0	M1
TTP	27	0	7	E	0	M1
HLD	28	0	4	288
TTP	29	0	0	B	0	M1
TTP	29	0	1	B	0	M1
TTP	29	0	1	E	0	M1
TTP	29	0	2	B	0	M1
TTP	29	0	3	E	0	M1
HLD	30	0	3	288
TTP	31	0	4	B	0	M1
TTP	31	0	5	B	0	M1
TTP	31	0	5	E	0	M1
TTP	31	0	6	B	0	M1
TTP	31	0	7	E	0	M1
STR	31	192	0
SSL	31	192	0	96	192	4
TAP	33	0	2
HLD	33	0	4	96
TAP	33	96	2
TAP	33	192	2
HLD	33	192	5	96
TAP	33	288	2
TAP	34	0	3
TAP	34	96	3
TAP	34	192	3
TTP	34	240	4	B	0	M1
TTP	34	240	5	B	0	M1
TTP	34	240	5	E	0	M1
TAP	34	288	3
TAP	35	0	2
TTP	35	0	6	B	0	M1
TTP	35	0	7	B	0	M1
TTP	35	0	7	E	0	M1
TAP	35	96	2
TAP	35	192	2
TAP	35	240	4
TAP	35	288	2
TAP	36	0	3
HLD	36	0	6	96
TAP	36	96	3
HLD	36	144	5	96
TAP	36	192	3
STR	36	288	3
SV_	36	288	3	96	96	4
TAP	36	288	7
XTP	37	192	5
TAP	37	288	5
TTP	38	0	2	B	0	M1
TTP	38	0	3	B	0	M1
TTP	38	0	3	E	0	M1
TAP	38	0	4
TAP	38	96	4
TTP	38	192	0	B	0	M1
TTP	38	192	1	B	0	M1
TTP	38	192	1	E	0	M1
TAP	38	192	4
TAP	38	288	4
TTP	39	0	2	B	0	M1
TTP	39	0	3	B	0	M1
TTP	39	0	3	E	0	M1
HLD	39	0	5	192
TTP	39	192	0	B	0	M1
TTP	39	192	1	B	0	M1
TTP	39	192	1	E	0	M1
TTP	40	0	4	B	0	M1
TTP	40	0	5	B	0	M1
TTP	40	0	5	E	0	M1
TTP	40	192	6	B	0	M1
TTP	40	192	7	B	0	M1
TTP	40	192	7	E	0	M1
XTP	40	288	0
HLD	41	0	0	144
TAP	41	144	7
HLD	41	288	5	96
TAP	42	0	4
TAP	42	48	4
HLD	42	48	6	144
HLD	42	192	4	96
HLD	42	288	3	192
HLD	43	96	1	192
HLD	43	288	7	288
HLD	44	96	0	96
TAP	44	288	1
HLD	45	0	2	144
HLD	45	144	0	96
HLD	45	240	7	96
HLD	45	336	5	96
TAP	46	48	3
TAP	46	96	3
HLD	46	144	4	96
TAP	46	288	3
TAP	46	288	5
HLD	47	0	2	144
TAP	47	0	6
TAP	47	144	3
TAP	47	288	1
TAP	47	288	4
HLD	48	0	0	288
TAP	48	0	5
TAP	48	192	4
STR	48	288	7
SCL	48	288	7	96	288	0
STR	50	192	0
SCR	50	192	0	96	288	7
XTP	51	288	5
HLD	51	336	5	144
TAP	52	96	1
TAP	52	288	2
TAP	52	288	4
HLD	53	0	5	144
TAP	53	144	3
TAP	53	240	2
TAP	53	336	1
TAP	53	336	3
TAP	54	48	4
TAP	54	48	6
TAP	54	144	0
TAP	54	144	1
STR	54	240	4
SCL	54	240	4	96	432	5
TAP	54	240	5
HLD	54	336	7	816
TAP	59	0	3
TAP	59	0	7
TAP	59	96	1
TAP	59	96	5
TAP	59	192	2
TAP	59	240	2
TAP	59	288	3
TAP	59	336	4
TAP	60	0	5
TAP	60	48	5
TAP	60	96	4
TAP	60	144	3
TAP	60	192	2
XHO	60	240	2	96
TAP	60	336	3
TAP	61	0	3
TAP	61	96	1
TAP	61	96	4
TAP	61	192	6
TAP	61	240	6
TAP	61	288	0
HLD	61	336	0	192
TAP	62	48	3
TAP	62	144	7
TAP	62	240	3
TAP	62	240	5
TAP	62	288	3
TAP	62	288	5
TAP	63	0	0
TAP	63	0	4
TAP	63	96	2
TAP	63	96	6
TAP	63	192	5
TAP	63	240	5
TAP	63	288	4
TAP	63	336	3
TAP	64	0	2
TAP	64	48	2
TAP	64	96	3
TAP	64	144	4
TAP	64	192	5
XHO	64	240	5	96
TAP	64	336	4
TAP	65	48	3
TAP	65	48	6
TAP	65	96	3
TAP	65	96	6
TAP	65	192	1
TAP	65	240	1
STR	65	288	7
SSR	65	288	7	96	240	3
TAP	65	336	7
TAP	67	0	3
TAP	67	0	7
TAP	67	96	1
TAP	67	96	5
TAP	67	192	2
TAP	67	240	2
TAP	67	288	3
TAP	67	336	4
TAP	68	0	5
TAP	68	48	5
TAP	68	96	4
TAP	68	144	3
TAP	68	192	2
XHO	68	240	2	96
XHO	68	240	4	96
TAP	69	0	3
TAP	69	0	5
TAP	69	48	3
TAP	69	48	5
TAP	69	144	2
TAP	69	144	6
TAP	69	240	0
TAP	69	288	0
HLD	69	336	7	96
TAP	70	48	4
TAP	70	96	3
TAP	70	144	3
TAP	70	240	2
TAP	70	240	5
TAP	70	288	2
TAP	70	288	5
TAP	71	0	0
TAP	71	0	4
TAP	71	96	2
TAP	71	96	6
TAP	71	192	5
TAP	71	240	5
TAP	71	288	4
TAP	71	336	3
TAP	72	0	2
TAP	72	48	2
TAP	72	96	3
TAP	72	144	4
TAP	72	192	5
XHO	72	240	5	96
TAP	72	336	4
TAP	73	48	3
TAP	73	48	6
TAP	73	96	3
TAP	73	96	6
TAP	73	192	1
TAP	73	240	1
TAP	73	288	7
HLD	73	336	7	336
BRK	74	288	0
TAP	75	0	1
TAP	75	48	1
TAP	75	96	3
TAP	75	192	3
TAP	75	192	4
STR	75	288	4
SI_	75	288	4	96	48	0
STR	75	288	6
SI_	75	288	6	96	48	3
HLD	76	192	0	96
TAP	76	192	3
STR	76	288	5
SI_	76	288	5	96	48	1
TAP	77	0	3
STR	77	96	2
SI_	77	96	2	96	48	4
TAP	77	192	5
STR	77	288	6
SI_	77	288	6	96	48	0
TAP	78	0	3
TAP	78	96	2
TAP	78	192	1
TAP	78	240	1
TAP	78	288	2
TAP	78	288	3
TAP	79	0	4
TAP	79	0	5
TAP	79	96	6
TAP	79	96	7
TAP	79	144	6
TAP	79	144	7
STR	79	240	0
SI_	79	240	0	96	48	4
STR	79	240	1
SI_	79	240	1	96	48	5
STR	80	48	6
SI_	80	48	6	96	48	2
STR	80	48	7
SI_	80	48	7	96	48	3
TAP	80	240	0
TAP	80	240	1
TAP	80	288	0
TAP	80	288	1
TAP	81	0	2
HLD	81	0	7	384
TAP	81	144	4
TAP	81	192	4
TAP	81	288	2
HLD	82	0	0	192
TAP	82	192	2
STR	82	288	2
SI_	82	288	2	96	48	7
STR	82	288	3
SI_	82	288	3	96	48	6
TTP	84	192	0	C	1	M1
TTP	84	192	4	B	0	M1
TTP	84	192	5	B	0	M1
TTP	84	192	5	E	0	M1
TTP	84	288	0	C	1	M1
TTP	84	288	2	B	0	M1
TTP	84	288	3	B	0	M1
TTP	84	288	3	E	0	M1
XST	85	96	0
SI_	85	96	0	96	48	4
XST	85	96	7
SI_	85	96	7	96	48	3
TAP	85	288	2
TAP	85	288	5
STR	85	336	2
SLR	85	336	2	96	144	7
STR	85	336	5
SLL	85	336	5	96	144	0
BRK	86	288	0
BRK	86	288	7
TAP	87	0	6
TAP	87	48	6
TAP	87	96	0
TAP	87	144	0
TAP	87	192	4
TAP	87	240	4
TAP	87	288	2
STR	87	336	2
SI_	87	336	2	96	48	6
STR	88	48	5
SI_	88	48	5	96	48	3
STR	88	144	1
SI_	88	144	1	96	48	7
STR	88	240	6
SCL	88	240	6	96	432	7
TTP	88	336	0	C	1	M1
BRK	90	288	0
BRK	90	288	7
TAP	91	0	6
TAP	91	48	6
TAP	91	96	2
TAP	91	144	2
TAP	91	192	4
TAP	91	240	5
TAP	91	288	3
TAP	91	336	2
TAP	92	0	7
TAP	92	48	7
TAP	92	96	3
TAP	92	144	3
TAP	92	192	5
TAP	92	240	6
TAP	92	288	2
TAP	92	336	1
TAP	93	0	3
TAP	93	48	3
TAP	93	96	0
TAP	93	144	0
TAP	93	192	5
TAP	93	240	4
STR	93	240	5
SXL	93	240	5	96	288	3
SLR	93	240	5	96	288	2
TAP	93	288	4
TAP	93	288	5

T_REC_TAP	248
T_REC_BRK	5
T_REC_XTP	6
T_REC_HLD	49
T_REC_XHO	5
T_REC_STR	34
T_REC_BST	1
T_REC_XST	2
T_REC_TTP	53
T_REC_THO	1
T_REC_SLD	38
T_REC_ALL	442
T_NUM_TAP	343
T_NUM_BRK	6
T_NUM_HLD	55
T_NUM_SLD	38
T_NUM_ALL	442
T_JUDGE_TAP	349
T_JUDGE_HLD	207
T_JUDGE_SLD	38
T_JUDGE_ALL	594
TTM_EACHPAIRS	68
TTM_SCR_TAP	171500
TTM_SCR_BRK	15600
TTM_SCR_HLD	55000
TTM_SCR_SLD	57000
TTM_SCR_ALL	299100
TTM_SCR_S	289550
TTM_SCR_SS	298500
TTM_RAT_ACV	10020

