VERSION	0.00.00	1.03.00
FES_MODE	0
BPM_DEF	191.000	191.000	191.000	191.000
MET_DEF	4	4
RESOLUTION	384
CLK_DEF	384
COMPATIBLE_CODE	MA2

BPM	0	0	191.000
MET	0	0	4	4

STR	1	0	1
SLR	1	0	1	96	384	5
STR	3	0	6
SLL	3	0	6	96	384	2
STR	5	0	1
SLR	5	0	1	96	384	5
STR	7	0	6
SLL	7	0	6	96	384	2
HLD	9	0	1	288
TAP	9	288	0
TAP	10	192	0
TAP	10	192	7
HLD	11	0	6	288
TAP	11	288	7
TAP	12	192	0
TAP	12	192	7
HLD	13	0	6	144
HLD	13	0	7	144
HLD	13	288	0	144
HLD	13	288	1	144
TAP	14	192	0
TAP	14	192	7
XTP	14	288	1
XTP	14	288	6
XST	14	336	1
SXL	14	336	1	96	480	7
XST	14	336	6
SXR	14	336	6	96	480	0
TAP	17	0	6
TAP	17	96	6
TAP	17	192	7
TAP	18	0	1
TAP	18	96	1
TAP	18	192	0
TAP	19	0	6
TAP	19	96	6
TAP	19	192	7
TAP	19	288	7
TAP	20	0	0
TAP	20	96	0
TAP	20	192	1
TAP	20	192	7
TAP	21	0	2
TAP	21	96	2
TAP	21	192	3
TAP	22	0	5
TAP	22	96	5
TAP	22	192	4
TAP	23	0	2
TAP	23	96	2
TAP	23	192	3
TAP	23	288	3
TAP	24	0	4
TAP	24	96	4
TAP	24	192	3
TAP	24	192	5
STR	25	0	6
SUL	25	0	6	96	384	3
STR	27	0	2
SUL	27	0	2	96	384	7
STR	29	0	6
SXL	29	0	6	96	480	3
STR	31	0	2
SXL	31	0	2	96	480	7
TTP	33	0	6	E	0	L1
TTP	33	96	5	B	0	L1
TTP	33	192	4	B	0	L1
TTP	34	0	2	E	0	L1
TTP	34	96	2	B	0	L1
TTP	34	192	3	B	0	L1
TTP	35	0	6	B	0	L1
TTP	35	96	5	B	0	L1
TTP	35	192	5	E	0	L1
TTP	36	0	1	B	0	L1
TTP	36	96	2	B	0	L1
TTP	36	192	3	E	0	L1
THO	37	0	0	192	C	0	L1
TTP	38	0	2	E	0	L1
TTP	38	96	2	B	0	L1
TTP	38	192	3	B	0	L1
TTP	39	0	6	B	0	L1
TTP	39	96	5	B	0	L1
TTP	39	192	4	B	0	L1
TTP	39	288	3	B	0	L1
TTP	40	0	2	B	0	L1
TTP	40	96	1	B	0	L1
TTP	40	192	1	E	0	L1
XHO	41	0	6	384
HLD	42	0	7	384
HLD	43	0	0	384
TAP	44	0	1
HLD	45	0	2	384
HLD	46	0	3	384
HLD	47	0	4	384
TAP	48	0	5
STR	49	0	6
SXR	49	0	6	96	480	2
STR	51	0	1
SXL	51	0	1	96	480	5
STR	53	0	6
SCL	53	0	6	96	192	3
STR	54	0	2
SCL	54	0	2	96	192	7
STR	55	0	6
SXL	55	0	6	96	480	3
TAP	59	0	6
TAP	59	96	6
TAP	59	192	6
TAP	59	192	7
STR	60	0	5
SV_	60	0	5	96	192	7
STR	61	0	0
SI_	61	0	0	96	192	3
TAP	62	0	4
TAP	62	96	4
TAP	62	192	3
TAP	62	192	4
STR	63	0	5
SI_	63	0	5	96	192	0
TAP	64	0	1
TAP	64	96	1
TAP	64	192	0
TAP	64	192	1
STR	65	0	2
SI_	65	0	2	96	192	7
HLD	66	0	6	192
TAP	66	192	7
STR	67	0	0
SCR	67	0	0	96	192	3
TAP	68	0	5
TAP	68	96	5
TAP	68	192	4
TAP	68	192	5
STR	69	0	6
SCL	69	0	6	96	192	3
TAP	70	0	2
TAP	70	96	2
TAP	70	192	2
TAP	70	192	3
STR	71	0	1
SCR	71	0	1	96	192	4
TAP	72	0	5
TAP	72	96	5
TAP	72	192	4
TAP	72	192	5
STR	73	0	6
SUL	73	0	6	96	384	3
BRK	75	0	2
TAP	75	96	2
TAP	75	192	2
TAP	75	192	3
TAP	75	288	2
TAP	75	288	3
TAP	76	0	5
TAP	76	96	5
TAP	76	192	4
TAP	76	192	5
TAP	76	288	4
TAP	76	288	5
TAP	77	0	6
TAP	77	96	6
TAP	77	192	7
TAP	77	288	7
TAP	78	0	0
TAP	78	96	0
TAP	78	192	1
TAP	78	192	7
TAP	79	0	1
TAP	79	96	1
TAP	79	192	0
TAP	79	192	1
TAP	79	288	0
TAP	79	288	1
TAP	80	0	6
TAP	80	96	6
TAP	80	192	6
TAP	80	192	7
TAP	80	288	6
TAP	80	288	7
TAP	81	0	5
TAP	81	96	5
TAP	81	192	4
TAP	81	288	4
TAP	82	0	3
TAP	82	96	3
TAP	82	192	2
TAP	82	192	4
XST	83	0	1
SUR	83	0	1	96	384	4
XTP	84	192	5
XST	84	288	5
SCR	84	288	5	96	192	0
TAP	86	0	1
TAP	86	96	1
TAP	86	192	0
TAP	86	288	7
BRK	87	0	6
TAP	87	96	6
TAP	87	96	7
TAP	87	192	6
TAP	87	288	6
TAP	87	288	7
TAP	88	0	1
TAP	88	96	0
TAP	88	96	1
TAP	88	192	1
STR	88	288	0
SXL	88	288	0	96	480	3
STR	88	288	7
SXR	88	288	7	96	480	4
TAP	91	0	5
TAP	91	96	4
TAP	91	192	4
TAP	91	192	5
TAP	91	288	2
TAP	92	0	3
TAP	92	96	2
TAP	92	96	3
TAP	92	192	4
TAP	92	288	3
TAP	92	288	4
TAP	93	0	2
TAP	93	0	5
TAP	93	96	1
TAP	93	96	6
TAP	93	192	0
TAP	93	192	7
STR	93	288	1
SLR	93	288	1	96	384	7
STR	93	288	6
SLL	93	288	6	96	384	0

T_REC_TAP	132
T_REC_BRK	2
T_REC_XTP	3
T_REC_HLD	12
T_REC_XHO	1
T_REC_STR	25
T_REC_BST	0
T_REC_XST	4
T_REC_TTP	22
T_REC_THO	1
T_REC_SLD	29
T_REC_ALL	231
T_NUM_TAP	186
T_NUM_BRK	2
T_NUM_HLD	14
T_NUM_SLD	29
T_NUM_ALL	231
T_JUDGE_TAP	188
T_JUDGE_HLD	80
T_JUDGE_SLD	29
T_JUDGE_ALL	297
TTM_EACHPAIRS	36
TTM_SCR_TAP	93000
TTM_SCR_BRK	5200
TTM_SCR_HLD	14000
TTM_SCR_SLD	43500
TTM_SCR_ALL	155700
TTM_SCR_S	150850
TTM_SCR_SS	155500
TTM_RAT_ACV	10012

