VERSION	0.00.00	1.03.00
FES_MODE	0
BPM_DEF	191.000	191.000	191.000	191.000
MET_DEF	4	4
RESOLUTION	384
CLK_DEF	384
COMPATIBLE_CODE	MA2

BPM	0	0	191.000
MET	0	0	4	4

XHO	1	0	0	768
TAP	4	0	7
TAP	4	192	7
HLD	5	0	7	768
HLD	9	0	0	288
TAP	10	192	1
HLD	11	0	1	288
TAP	12	192	2
HLD	13	0	2	288
TAP	14	192	3
TAP	14	192	4
XHO	15	0	3	384
XHO	15	0	4	384
TAP	17	0	4
TAP	17	192	4
TAP	18	0	4
TAP	18	192	4
TAP	19	0	5
TAP	19	192	5
TAP	20	0	5
TAP	21	0	6
TAP	21	192	6
TAP	22	0	6
TAP	22	192	6
TAP	23	0	7
TAP	23	192	7
TAP	24	0	0
TAP	24	0	7
STR	25	0	0
SI_	25	0	0	96	288	3
TAP	27	0	4
TAP	27	192	4
TAP	28	0	5
TAP	28	192	5
STR	29	0	6
SI_	29	0	6	96	288	2
HLD	31	0	0	384
TAP	33	0	0
TAP	33	96	0
TAP	33	192	0
TAP	34	0	1
TAP	34	192	1
TAP	35	0	2
TAP	35	96	2
TAP	35	192	2
TAP	36	0	2
TAP	36	0	3
TAP	37	0	4
TAP	37	96	4
TAP	37	192	4
TAP	38	0	5
TAP	38	192	5
TAP	39	0	6
TAP	39	96	6
TAP	39	192	6
TAP	40	0	0
TAP	40	0	7
TTP	41	0	0	B	0	L1
TTP	42	0	7	B	0	L1
TTP	43	0	1	B	0	L1
TTP	44	0	6	B	0	L1
TTP	45	0	2	B	0	L1
TTP	46	0	5	B	0	L1
TTP	47	0	3	B	0	L1
TTP	48	0	4	B	0	L1
THO	49	0	0	384	C	0	L1
TTP	51	0	0	B	0	L1
TTP	51	0	7	B	0	L1
TTP	52	0	1	B	0	L1
TTP	52	0	6	B	0	L1
TTP	53	0	2	B	0	L1
TTP	53	0	5	B	0	L1
TTP	54	0	3	B	0	L1
TTP	54	0	4	B	0	L1
THO	55	0	0	768	C	0	L1
BRK	59	0	7
TAP	59	96	7
TAP	59	192	7
TAP	60	0	6
TAP	60	192	6
TAP	61	0	5
TAP	61	96	5
TAP	61	192	5
TAP	62	0	3
TAP	62	0	4
TAP	62	192	3
TAP	62	192	4
TAP	63	0	2
TAP	63	96	2
TAP	63	192	2
TAP	64	0	1
TAP	64	192	1
TAP	65	0	0
TAP	65	96	0
HLD	65	192	0	192
TAP	67	0	1
TAP	67	96	1
TAP	67	192	1
TAP	68	0	2
TAP	68	192	3
TAP	69	0	4
TAP	69	96	4
HLD	69	192	4	192
TAP	71	0	5
TAP	71	96	5
TAP	71	192	5
TAP	72	0	6
TAP	72	192	7
TAP	73	0	0
TAP	73	96	0
HLD	73	192	0	144
XTP	75	0	0
TAP	75	96	0
TAP	75	192	0
TAP	76	0	1
TAP	76	96	1
TAP	76	192	1
TAP	77	0	2
TAP	77	96	2
TAP	77	192	2
TAP	78	0	3
TAP	78	96	3
TAP	78	192	3
TAP	78	192	4
TAP	79	0	4
TAP	79	96	4
TAP	79	192	4
TAP	80	0	5
TAP	80	96	5
TAP	80	192	5
TAP	81	0	6
TAP	81	96	6
TAP	81	192	6
TAP	82	0	7
TAP	82	96	7
TAP	82	192	0
TAP	82	192	7
BRK	83	0	1
BRK	83	0	6
TAP	84	192	0
TAP	84	288	0
XST	85	0	0
SI_	85	0	0	96	288	4
XTP	87	0	5
TAP	87	96	5
TAP	87	192	5
TAP	87	288	5
TAP	88	0	4
TAP	88	96	4
TAP	88	192	4
TAP	88	288	4
XTP	89	0	3
XTP	89	0	4
TAP	91	0	3
TAP	91	0	4
TAP	91	96	3
TAP	91	96	4
TAP	91	192	3
TAP	91	192	4
TAP	92	0	2
TAP	92	0	5
TAP	92	96	2
TAP	92	96	5
TAP	92	192	2
TAP	92	192	5
TAP	93	0	1
TAP	93	0	6
TAP	93	96	1
TAP	93	96	6
TAP	93	192	1
TAP	93	192	6
XHO	94	0	0	384
XHO	94	0	7	384

T_REC_TAP	129
T_REC_BRK	3
T_REC_XTP	4
T_REC_HLD	8
T_REC_XHO	5
T_REC_STR	2
T_REC_BST	0
T_REC_XST	1
T_REC_TTP	16
T_REC_THO	2
T_REC_SLD	3
T_REC_ALL	173
T_NUM_TAP	152
T_NUM_BRK	3
T_NUM_HLD	15
T_NUM_SLD	3
T_NUM_ALL	173
T_JUDGE_TAP	155
T_JUDGE_HLD	125
T_JUDGE_SLD	3
T_JUDGE_ALL	283
TTM_EACHPAIRS	21
TTM_SCR_TAP	76000
TTM_SCR_BRK	7800
TTM_SCR_HLD	15000
TTM_SCR_SLD	4500
TTM_SCR_ALL	103300
TTM_SCR_S	99950
TTM_SCR_SS	103000
TTM_RAT_ACV	10029

