VERSION	0.00.00	1.03.00
FES_MODE	0
BPM_DEF	168.000	168.000	168.000	168.000
MET_DEF	4	4
RESOLUTION	384
CLK_DEF	384
COMPATIBLE_CODE	MA2

BPM	0	0	168.000
MET	0	0	4	4

XTP	1	0	0
XHO	1	0	4	80
XTP	1	40	0
XTP	1	64	0
XST	1	80	0
SSL	1	80	0	96	144	4
STR	2	0	5
SCR	2	0	5	96	288	2
STR	3	0	5
SCR	3	0	5	96	288	2
STR	4	0	5
SCR	4	0	5	96	288	2
STR	5	0	5
SCR	5	0	5	96	144	2
TAP	5	288	3
TAP	5	288	4
TAP	6	0	5
HLD	6	48	5	576
TTP	6	144	5	E	0	M1
TTP	6	240	4	E	0	M1
TTP	6	336	3	E	0	M1
TTP	7	48	2	E	0	M1
TTP	7	144	1	E	0	M1
TTP	7	240	0	E	0	M1
TAP	7	336	1
TAP	7	336	6
TAP	8	0	0
TAP	8	0	7
TAP	8	48	6
TAP	8	96	5
TAP	8	144	4
TAP	8	192	3
TAP	8	240	2
TAP	8	288	1
TAP	8	336	0
TAP	8	336	7
TAP	9	0	6
TAP	9	24	1
TAP	9	48	6
TAP	9	72	1
TAP	9	96	6
TAP	9	120	1
TAP	9	144	6
TAP	9	168	1
TAP	9	192	7
TAP	9	216	0
TAP	9	240	7
TAP	9	264	0
TAP	9	288	6
TAP	9	304	5
TAP	9	320	4
TAP	9	336	0
TAP	9	352	1
TAP	9	368	2
BRK	10	0	3
BST	10	0	7
SCR	10	0	7	96	288	6
TAP	11	0	0
TAP	11	48	1
TAP	11	96	2
TAP	11	144	3
STR	11	192	4
SF_	11	192	4	96	48	0
TAP	11	240	3
TAP	11	240	5
BRK	11	288	4
TAP	12	0	2
TAP	12	0	6
TAP	12	48	2
TAP	12	48	6
TAP	12	96	7
TAP	12	120	1
TAP	12	144	7
TAP	12	168	1
TAP	12	192	7
TAP	12	216	6
TAP	12	240	5
TAP	12	264	4
TAP	12	288	7
TAP	12	312	0
TAP	12	336	1
TAP	12	360	2
TAP	13	0	3
TAP	13	0	5
TAP	13	48	3
TAP	13	48	5
TAP	13	96	6
TAP	13	120	4
TAP	13	144	6
TAP	13	168	4
TAP	13	192	7
TAP	13	216	6
TAP	13	240	5
TAP	13	264	4
TAP	13	288	1
TAP	13	288	3
TAP	13	336	1
STR	13	336	3
SI_	13	336	3	96	48	7
TAP	14	0	0
STR	14	48	2
SI_	14	48	2	96	48	0
TAP	14	48	3
TAP	14	144	2
STR	14	144	3
SI_	14	144	3	96	48	7
STR	14	240	2
SI_	14	240	2	96	48	0
TAP	14	240	3
TAP	14	336	2
STR	14	336	3
SI_	14	336	3	96	48	7
STR	15	48	2
SI_	15	48	2	96	48	0
TAP	15	48	3
TAP	15	144	2
TAP	15	144	3
TAP	15	192	3
TAP	15	240	1
TAP	15	240	4
BRK	15	288	0
BRK	15	288	5
TAP	16	0	1
TAP	16	0	7
TAP	16	48	1
TAP	16	48	7
TAP	16	96	0
TAP	16	120	6
TAP	16	144	0
TAP	16	168	6
TAP	16	192	0
TAP	16	216	1
TAP	16	240	2
TAP	16	264	3
TAP	16	288	0
TAP	16	312	7
TAP	16	336	6
TAP	16	360	5
TAP	17	0	2
TAP	17	0	4
TAP	17	48	2
TAP	17	48	4
TAP	17	96	1
TAP	17	120	3
TAP	17	144	1
TAP	17	168	3
TAP	17	192	0
TAP	17	216	1
TAP	17	240	2
TAP	17	264	3
TAP	17	288	4
TAP	17	288	6
STR	17	336	4
SI_	17	336	4	96	48	0
TAP	17	336	6
TAP	18	0	7
TAP	18	48	4
STR	18	48	5
SI_	18	48	5	96	48	7
STR	18	144	4
SI_	18	144	4	96	48	0
TAP	18	144	5
TAP	18	240	4
STR	18	240	5
SI_	18	240	5	96	48	7
STR	18	336	4
SI_	18	336	4	96	48	0
TAP	18	336	5
TAP	19	48	4
TAP	19	48	5
TAP	19	144	4
TAP	19	144	5
TAP	19	192	6
TAP	19	240	0
TAP	19	240	7
BRK	19	288	1
BRK	19	288	6
TAP	20	0	2
TAP	20	0	3
TAP	20	48	2
TAP	20	96	1
TAP	20	96	2
TAP	20	144	2
TAP	20	192	2
TAP	20	192	3
TAP	20	240	2
TAP	20	288	2
TAP	20	288	6
TAP	20	336	2
TAP	21	0	5
TAP	21	24	4
TAP	21	48	6
TAP	21	72	2
TAP	21	96	3
TAP	21	120	1
TAP	21	144	5
TAP	21	168	4
TAP	21	192	6
TAP	21	216	2
TAP	21	240	3
TAP	21	264	1
TAP	21	288	7
TAP	21	336	7
TAP	22	0	3
TAP	22	0	5
TAP	22	48	5
TAP	22	96	5
TAP	22	96	6
TAP	22	144	5
TAP	22	192	4
TAP	22	192	5
TAP	22	240	5
TAP	22	288	0
TAP	22	288	5
TAP	22	336	5
TAP	23	0	1
TAP	23	24	3
TAP	23	48	1
TAP	23	72	3
TAP	23	96	2
TAP	23	120	4
TAP	23	144	2
TAP	23	168	4
TAP	23	192	3
TAP	23	216	5
TAP	23	240	3
TAP	23	264	5
TAP	23	288	4
TAP	23	312	6
TAP	23	336	4
BRK	24	0	2
BRK	24	0	7
TAP	24	48	2
TAP	24	96	2
TAP	24	96	4
TAP	24	144	2
TAP	24	192	1
TAP	24	192	2
TAP	24	240	2
TAP	24	288	2
TAP	24	288	6
TAP	24	336	2
TAP	25	0	5
TAP	25	24	4
TAP	25	48	6
TAP	25	72	2
TAP	25	96	3
TAP	25	120	1
TAP	25	144	5
TAP	25	168	4
TAP	25	192	6
TAP	25	216	2
TAP	25	240	3
TAP	25	264	1
TAP	25	288	7
TAP	25	336	7
TAP	26	0	3
TAP	26	0	5
TAP	26	48	5
TAP	26	96	5
TAP	26	96	6
TAP	26	144	5
TAP	26	192	4
TAP	26	192	5
TAP	26	240	5
TAP	26	288	0
TAP	26	288	5
TAP	26	336	5
TAP	27	0	1
TAP	27	24	3
TAP	27	48	1
TAP	27	72	3
TAP	27	96	2
TAP	27	120	4
TAP	27	144	2
TAP	27	168	4
TAP	27	192	3
TAP	27	216	5
TAP	27	240	3
TAP	27	264	5
BRK	27	288	0
TAP	28	0	2
TAP	28	0	6
TAP	28	48	2
TAP	28	48	6
TAP	28	96	1
HLD	28	120	3	48
TAP	28	168	2
HLD	28	192	4	48
TAP	28	240	3
HLD	28	264	5	48
TAP	28	312	4
STR	28	336	6
SI_	28	336	6	96	48	4
TAP	29	0	2
BST	29	48	6
SI_	29	48	6	96	48	0
TAP	29	96	3
BST	29	144	6
SI_	29	144	6	96	48	4
TAP	29	192	2
BST	29	240	6
SI_	29	240	6	96	48	0
TAP	29	288	3
BRK	29	336	6
TAP	30	0	3
TAP	30	48	3
TAP	30	96	6
HLD	30	120	4	48
TAP	30	168	5
HLD	30	192	3	48
TAP	30	240	4
HLD	30	264	2	48
TAP	30	312	3
STR	30	336	1
SI_	30	336	1	96	48	3
TAP	31	0	5
BST	31	48	1
SI_	31	48	1	96	48	7
TAP	31	96	4
BRK	31	144	1
STR	31	192	6
SI_	31	192	6	96	48	2
TAP	31	240	0
BRK	31	288	2
BRK	31	288	6
TAP	32	0	0
TAP	32	0	4
TAP	32	48	0
TAP	32	48	4
TAP	32	96	1
HLD	32	120	3	48
TAP	32	168	2
HLD	32	192	4	48
TAP	32	240	3
HLD	32	264	5	48
TAP	32	312	4
STR	32	336	6
SI_	32	336	6	96	48	4
TAP	33	0	2
BST	33	48	6
SI_	33	48	6	96	48	0
TAP	33	96	3
BST	33	144	6
SI_	33	144	6	96	48	4
TAP	33	192	2
BST	33	240	6
SI_	33	240	6	96	48	0
TAP	33	288	3
BST	33	336	6
SI_	33	336	6	96	48	4
TAP	34	0	2
BST	34	48	6
SI_	34	48	6	96	48	0
TAP	34	96	3
BST	34	144	6
SLL	34	144	6	96	96	7
TAP	34	192	2
TAP	34	240	6
TAP	34	288	3
TAP	34	336	3
STR	35	0	2
SI_	35	0	2	96	48	7
TAP	35	48	1
STR	35	96	6
SI_	35	96	6	96	48	2
TAP	35	144	5
STR	35	192	0
SF_	35	192	0	96	48	4
TAP	35	240	7
BRK	35	288	0
TTP	35	300	0	C	0	M1
BRK	36	0	2
BRK	36	0	7
TAP	36	336	1
TAP	36	336	5
TAP	37	0	1
HLD	37	0	5	240
HLD	37	240	4	144
TAP	37	336	3
HLD	38	0	3	384
TAP	38	336	2
HLD	39	0	2	192
TAP	39	192	5
TAP	39	288	3
TAP	39	288	4
BRK	40	0	3
HLD	40	0	4	1056
TTP	40	96	5	E	0	M1
TTP	40	288	6	E	0	M1
TTP	41	96	7	E	0	M1
TTP	41	288	0	E	0	M1
TTP	42	96	1	E	0	M1
XTP	42	288	3
TAP	43	0	6
TAP	43	48	6
TAP	43	96	2
TAP	43	144	2
TAP	43	192	5
TAP	43	240	5
STR	43	288	3
SCR	43	288	3	96	288	2
TAP	43	288	4
TTP	44	0	0	C	1	M1
TAP	45	0	4
TAP	45	24	3
TAP	45	48	4
TAP	45	72	3
TAP	45	96	4
TAP	45	120	3
TAP	45	144	4
TAP	45	168	3
TAP	45	192	4
TAP	45	216	3
TAP	45	240	4
TAP	45	264	3
BRK	45	288	2
BRK	45	288	5
TAP	46	0	5
TAP	46	24	4
TAP	46	48	3
TAP	46	72	2
TAP	46	96	5
TAP	46	120	4
TAP	46	144	3
TAP	46	168	2
TTP	46	192	7	E	0	M1
TTP	46	216	7	B	0	M1
TTP	46	240	0	B	0	M1
TTP	46	264	1	E	0	M1
TTP	46	288	5	E	0	M1
TTP	46	312	4	B	0	M1
TTP	46	336	3	B	0	M1
TTP	46	360	3	E	0	M1
TAP	47	0	6
TAP	47	24	7
TAP	47	48	0
TAP	47	72	1
TAP	47	96	6
TAP	47	120	7
TAP	47	144	0
TAP	47	168	1
TTP	47	192	7	E	0	M1
TTP	47	216	6	B	0	M1
TTP	47	240	2	B	0	M1
TTP	47	264	3	E	0	M1
XHO	47	288	4	528
XTP	48	48	7
XTP	48	60	6
XTP	48	72	5
XTP	48	144	7
XTP	48	156	6
XTP	48	168	5
XTP	48	240	7
XTP	48	252	6
XTP	48	264	5
XTP	48	336	7
XTP	48	348	6
XTP	48	360	5
BRK	49	48	7
TAP	49	144	2
TAP	49	144	5
TAP	49	192	3
TAP	49	216	4
TAP	49	240	3
TAP	49	264	4
TAP	49	288	3
TAP	49	312	4
TAP	49	336	3
TAP	49	360	4
TAP	50	0	2
TAP	50	24	3
TAP	50	48	4
TAP	50	72	5
TAP	50	96	2
TAP	50	120	3
TAP	50	144	4
TAP	50	168	5
TTP	50	192	1	E	0	M1
TTP	50	216	0	B	0	M1
TTP	50	240	7	B	0	M1
TTP	50	264	7	E	0	M1
TTP	50	288	3	E	0	M1
TTP	50	312	3	B	0	M1
TTP	50	336	4	B	0	M1
TTP	50	360	5	E	0	M1
TAP	51	0	1
TAP	51	24	0
TAP	51	48	7
TAP	51	72	6
TAP	51	96	1
TAP	51	120	0
TAP	51	144	7
TAP	51	168	6
TTP	51	192	1	E	0	M1
TTP	51	216	1	B	0	M1
TTP	51	240	5	B	0	M1
TTP	51	264	5	E	0	M1
XHO	51	288	3	432
XTP	52	48	0
XTP	52	60	1
XTP	52	72	2
XTP	52	144	0
XTP	52	156	1
XTP	52	168	2
XTP	52	240	0
XTP	52	252	1
XTP	52	264	2
BRK	52	336	0
TAP	53	48	0
TAP	53	48	7
TAP	53	96	1
TAP	53	96	6
TAP	53	144	2
TAP	53	144	5
TAP	53	192	3
STR	53	192	4
SUL	53	192	4	96	96	3
STR	53	288	3
SCL	53	288	3	96	240	4
TTP	54	0	0	C	1	M1
BRK	55	0	0
TAP	55	24	3
TAP	55	48	2
TAP	55	72	7
TAP	55	96	4
TAP	55	120	5
TAP	55	144	0
TAP	55	168	6
STR	55	192	2
SI_	55	192	2	96	48	0
TAP	55	216	4
STR	55	240	0
SI_	55	240	0	96	48	4
TAP	55	264	7
TAP	55	288	2
XTP	56	0	7
TAP	56	24	6
TAP	56	48	5
TAP	56	72	3
TAP	56	72	4
TAP	56	96	2
TAP	56	120	1
TAP	56	144	0
TAP	56	144	4
TAP	56	168	5
TAP	56	192	6
TAP	56	216	0
TAP	56	216	7
TAP	56	240	1
TAP	56	264	2
TAP	56	288	3
TAP	56	288	6
TAP	56	336	3
TAP	56	336	6
BRK	57	0	7
TAP	57	24	4
TAP	57	48	5
TAP	57	72	0
TAP	57	96	3
TAP	57	120	2
TAP	57	144	7
TAP	57	168	1
STR	57	192	5
SI_	57	192	5	96	48	7
TAP	57	216	3
STR	57	240	7
SI_	57	240	7	96	48	3
TAP	57	264	0
TAP	57	288	5
XTP	58	0	0
TAP	58	24	1
TAP	58	48	2
TAP	58	72	3
TAP	58	96	4
TAP	58	96	5
TAP	58	120	6
TAP	58	144	7
TAP	58	168	0
TAP	58	192	4
TAP	58	216	3
TAP	58	240	2
TAP	58	264	1
TAP	58	288	0
TAP	58	288	7
TAP	58	312	6
TAP	58	336	5
TAP	58	360	4
BRK	59	0	1
TAP	59	24	0
TAP	59	48	2
TAP	59	72	7
TAP	59	96	4
TAP	59	120	5
TAP	59	144	1
TAP	59	168	0
STR	59	192	2
SI_	59	192	2	96	48	0
TAP	59	216	3
STR	59	240	0
SI_	59	240	0	96	48	4
TAP	59	264	7
TAP	59	288	2
XTP	60	0	7
TAP	60	24	6
TAP	60	48	5
TAP	60	72	3
TAP	60	72	4
TAP	60	96	2
TAP	60	120	1
TAP	60	144	0
TAP	60	144	4
TAP	60	168	5
TAP	60	192	6
TAP	60	216	0
TAP	60	216	7
TAP	60	240	1
TAP	60	264	2
TAP	60	288	3
TAP	60	288	6
TAP	60	336	3
TAP	60	336	6
BRK	61	0	7
TAP	61	24	4
TAP	61	48	5
TAP	61	72	0
TAP	61	96	3
TAP	61	120	2
TAP	61	144	6
TAP	61	168	7
STR	61	192	5
SI_	61	192	5	96	48	7
TAP	61	216	4
STR	61	240	7
SI_	61	240	7	96	48	3
TAP	61	264	0
TAP	61	288	5
XTP	62	0	0
TAP	62	24	1
TAP	62	48	2
TAP	62	72	3
TAP	62	96	4
TAP	62	96	7
TAP	62	120	6
TAP	62	144	5
TAP	62	168	4
TAP	62	192	1
TAP	62	204	2
TAP	62	216	3
TAP	62	228	4
TAP	62	240	5
TAP	62	252	6
TAP	62	264	7
TAP	62	276	0
BRK	62	288	1
BRK	62	288	5
TAP	63	0	2
TAP	63	0	6
TAP	63	48	2
TAP	63	48	6
TAP	63	96	3
HLD	63	120	5	48
TAP	63	168	1
HLD	63	192	7	48
TAP	63	240	2
HLD	63	264	4	48
TAP	63	312	0
STR	63	336	6
SI_	63	336	6	96	48	4
TAP	64	0	3
BST	64	48	6
SLR	64	48	6	96	48	2
TAP	64	96	0
BST	64	144	6
SI_	64	144	6	96	48	4
TAP	64	192	4
BST	64	240	6
SLR	64	240	6	96	48	2
TAP	64	288	0
BRK	64	336	6
TAP	65	0	4
XTP	65	48	3
XTP	65	48	5
TAP	65	96	4
HLD	65	120	2	48
TAP	65	168	6
HLD	65	192	0	48
TAP	65	240	5
HLD	65	264	3	48
TAP	65	312	7
STR	65	336	1
SI_	65	336	1	96	48	3
TAP	66	0	4
BST	66	48	1
SLL	66	48	1	96	48	5
TAP	66	96	7
BRK	66	144	1
STR	66	192	3
SF_	66	192	3	96	48	7
XTP	66	240	2
XTP	66	240	4
BRK	66	288	3
TAP	67	0	1
BST	67	48	6
SLR	67	48	6	96	48	2
TAP	67	60	5
TAP	67	72	4
TAP	67	96	0
BRK	67	144	6
TAP	67	192	3
BST	67	240	6
SLR	67	240	6	96	48	2
TAP	67	252	5
TAP	67	264	4
TAP	67	288	0
BRK	67	336	6
TAP	68	0	3
BST	68	48	6
SLR	68	48	6	96	48	2
TAP	68	60	5
TAP	68	72	4
TAP	68	96	0
BRK	68	144	6
TAP	68	192	3
BST	68	240	6
SI_	68	240	6	96	48	2
TAP	68	252	5
TAP	68	264	4
TAP	68	288	0
BRK	68	336	6
TAP	69	0	3
TAP	69	48	4
TAP	69	48	5
BRK	69	96	3
BRK	69	96	6
TTP	69	108	7	E	0	M1
TTP	69	120	7	B	0	M1
TTP	69	132	0	B	0	M1
TTP	69	144	1	E	0	M1
TAP	69	240	2
TAP	69	240	3
BRK	69	288	1
BRK	69	288	4
TTP	69	300	1	E	0	M1
TTP	69	312	0	B	0	M1
TTP	69	324	7	B	0	M1
TTP	69	336	7	E	0	M1
TAP	70	48	4
TAP	70	48	5
BRK	70	96	3
BRK	70	96	6
TTP	70	108	7	E	0	M1
TTP	70	120	7	B	0	M1
TTP	70	132	0	B	0	M1
TTP	70	144	1	E	0	M1
TAP	70	240	2
TAP	70	240	3
BRK	70	288	0
BRK	70	288	5
TAP	71	0	1
TAP	71	24	0
STR	71	48	2
SLL	71	48	2	96	72	4
TAP	71	72	7
STR	71	144	4
SI_	71	144	4	96	48	6
TAP	71	240	7
TAP	71	288	7
TAP	72	0	6
TAP	72	24	7
STR	72	48	5
SLR	72	48	5	96	72	3
TAP	72	72	0
STR	72	144	3
SI_	72	144	3	96	48	1
TAP	72	240	0
TAP	72	288	0
TAP	73	0	1
TAP	73	24	0
STR	73	48	2
SLL	73	48	2	96	72	4
TAP	73	72	7
STR	73	144	4
SI_	73	144	4	96	24	6
TAP	73	240	7
TAP	73	288	0
XTP	73	288	6
BRK	74	0	7
BRK	74	24	7
BRK	74	48	7
BRK	74	72	7
BRK	74	96	7
TAP	74	144	0
TAP	74	144	6
TAP	74	240	1
TAP	74	240	5
TAP	74	288	2
TAP	74	312	4
TAP	74	336	2
TAP	74	360	4
STR	75	0	3
SCL	75	0	3	96	96	7
STR	75	96	7
SCL	75	96	7	96	96	3
STR	75	192	3
SCL	75	192	3	96	96	7
STR	75	288	7
SCL	75	288	7	96	96	3
STR	76	0	3
SLL	76	0	3	96	96	7
STR	76	96	7
SLL	76	96	7	96	96	3
TAP	76	192	3
TAP	76	288	7
BRK	77	0	0
BRK	77	0	6
TAP	77	12	5
TAP	77	24	4
TAP	77	36	3
TAP	77	48	0
BRK	77	144	1
BRK	77	144	7
TAP	77	156	2
TAP	77	168	3
TAP	77	180	4
TAP	77	192	7
BRK	77	288	0
BRK	77	288	6
TAP	77	300	5
TAP	77	312	4
TAP	77	324	3
TAP	77	336	0
BRK	78	48	1
BRK	78	48	7
TAP	78	60	2
TAP	78	72	3
TAP	78	84	4
TAP	78	96	7
BRK	78	192	6
TAP	78	216	7
BRK	78	240	6
TAP	78	264	7
BRK	78	288	6
TAP	78	312	7
BRK	78	336	6
BRK	79	0	0
BRK	79	0	5
TAP	79	12	4
TAP	79	24	3
TAP	79	36	2
TAP	79	48	0
BRK	79	144	2
BRK	79	144	7
TAP	79	156	3
TAP	79	168	4
TAP	79	180	5
TAP	79	192	7
BRK	79	288	0
BRK	79	288	5
TAP	79	300	4
TAP	79	312	3
TAP	79	324	2
TAP	79	336	0
BRK	80	48	2
BRK	80	48	7
TAP	80	60	3
TAP	80	72	4
TAP	80	84	5
TAP	80	96	7
TAP	80	192	6
TAP	80	216	1
TAP	80	240	6
TAP	80	264	1
TAP	80	288	0
TAP	80	288	7
TAP	80	312	0
TAP	80	312	7
TAP	80	336	0
HLD	80	336	7	132
BST	81	96	0
SSL	81	96	0	96	864	4
BRK	81	96	6
TAP	81	108	1
TAP	81	108	5
TAP	81	120	2
TAP	81	120	4
STR	81	132	3
SCL	81	132	3	96	828	5

T_REC_TAP	569
T_REC_BRK	68
T_REC_XTP	34
T_REC_HLD	22
T_REC_XHO	3
T_REC_STR	50
T_REC_BST	20
T_REC_XST	1
T_REC_TTP	50
T_REC_THO	0
T_REC_SLD	71
T_REC_ALL	888
T_NUM_TAP	704
T_NUM_BRK	88
T_NUM_HLD	25
T_NUM_SLD	71
T_NUM_ALL	888
T_JUDGE_TAP	792
T_JUDGE_HLD	94
T_JUDGE_SLD	71
T_JUDGE_ALL	957
TTM_EACHPAIRS	111
TTM_SCR_TAP	352000
TTM_SCR_BRK	228800
TTM_SCR_HLD	25000
TTM_SCR_SLD	106500
TTM_SCR_ALL	712300
TTM_SCR_S	682400
TTM_SCR_SS	703500
TTM_RAT_ACV	10125

