VERSION	0.00.00	1.03.00
FES_MODE	0
BPM_DEF	168.000	168.000	168.000	168.000
MET_DEF	4	4
RESOLUTION	384
CLK_DEF	384
COMPATIBLE_CODE	MA2

BPM	0	0	168.000
MET	0	0	4	4

HLD	2	0	5	192
TAP	2	192	4
TAP	2	288	3
HLD	3	0	2	192
TAP	3	192	3
TAP	3	288	4
HLD	4	0	5	192
TAP	4	192	4
TAP	4	288	3
HLD	5	0	2	192
TAP	5	192	3
TAP	5	288	3
TAP	5	288	4
TAP	6	0	5
HLD	6	48	5	288
TAP	6	144	4
TAP	6	240	4
TAP	6	336	3
TAP	7	0	2
HLD	7	48	2	288
TAP	7	144	3
TAP	7	240	3
TAP	7	336	4
TAP	8	0	5
HLD	8	48	5	288
TAP	8	144	4
TAP	8	240	4
TAP	8	336	3
TAP	9	0	2
HLD	9	48	2	192
TAP	9	144	3
TAP	9	240	4
TAP	9	288	4
STR	10	0	5
SCL	10	0	5	96	96	2
STR	10	192	1
SCL	10	192	1	96	96	6
TAP	11	0	4
TAP	11	96	0
TAP	11	96	7
TAP	11	192	3
TAP	11	192	4
BRK	11	288	1
BRK	11	288	6
TAP	12	0	7
TAP	12	48	7
TAP	12	96	0
TAP	12	144	0
TAP	12	192	5
TAP	12	240	5
TAP	12	288	4
TAP	12	336	6
TAP	13	0	1
TAP	13	48	1
TAP	13	96	7
TAP	13	144	7
TAP	13	192	3
TAP	13	240	3
TAP	13	288	4
HLD	13	336	2	576
XTP	14	48	7
XTP	14	144	7
XTP	14	240	0
XTP	14	336	0
XTP	15	48	6
XTP	15	144	7
XTP	15	192	7
TAP	15	288	3
TAP	15	288	6
TAP	16	0	1
TAP	16	48	1
TAP	16	96	0
TAP	16	144	0
TAP	16	192	3
TAP	16	240	3
TAP	16	288	4
TAP	16	336	2
TAP	17	0	7
TAP	17	48	7
TAP	17	96	1
TAP	17	144	1
TAP	17	192	5
TAP	17	240	5
TAP	17	288	4
HLD	17	336	6	576
XTP	18	48	1
XTP	18	144	1
XTP	18	240	0
XTP	18	336	0
XTP	19	48	1
XTP	19	144	0
BRK	19	240	1
BRK	19	240	5
BRK	19	288	1
BRK	19	288	5
STR	20	0	7
SI_	20	0	7	96	48	3
STR	20	96	1
SI_	20	96	1	96	48	5
STR	20	192	6
SI_	20	192	6	96	48	3
TAP	20	288	0
XTP	21	0	0
XTP	21	48	1
XTP	21	96	2
XTP	21	144	3
XTP	21	192	4
XTP	21	240	5
XTP	21	288	6
XTP	21	336	7
STR	22	0	0
SI_	22	0	0	96	48	4
STR	22	96	6
SI_	22	96	6	96	48	2
STR	22	192	1
SI_	22	192	1	96	48	4
TAP	22	288	7
XTP	23	0	7
XTP	23	48	6
XTP	23	96	5
XTP	23	144	4
XTP	23	192	3
XTP	23	240	2
XTP	23	288	1
XTP	23	336	0
STR	24	0	7
SI_	24	0	7	96	48	3
STR	24	96	1
SI_	24	96	1	96	48	6
STR	24	192	5
SI_	24	192	5	96	48	2
TAP	24	288	0
XTP	25	0	0
XTP	25	48	1
XTP	25	96	2
XTP	25	144	3
XTP	25	192	4
XTP	25	240	5
XTP	25	288	6
XTP	25	336	7
STR	26	0	0
SI_	26	0	0	96	48	4
STR	26	96	6
SI_	26	96	6	96	48	1
STR	26	192	2
SI_	26	192	2	96	48	5
TAP	26	288	7
XTP	27	0	7
XTP	27	48	6
XTP	27	96	5
XTP	27	144	4
XTP	27	192	3
XTP	27	240	2
XTP	27	288	1
XTP	27	288	5
TAP	28	0	6
HLD	28	48	6	72
HLD	28	120	4	72
HLD	28	192	3	72
HLD	28	264	1	72
HLD	28	336	7	384
XTP	29	48	5
XTP	29	144	5
XTP	29	240	2
XTP	29	336	2
TAP	30	0	1
HLD	30	48	1	72
HLD	30	120	3	72
HLD	30	192	4	72
HLD	30	264	6	72
HLD	30	336	0	288
XTP	31	48	2
XTP	31	144	2
XTP	31	240	5
XTP	31	288	5
TAP	32	0	6
HLD	32	48	6	72
HLD	32	120	4	72
HLD	32	192	3	72
HLD	32	264	1	72
HLD	32	336	7	384
XTP	33	48	5
XTP	33	144	5
XTP	33	240	2
XTP	33	336	2
XTP	34	48	0
XTP	34	48	1
XTP	34	144	2
XTP	34	144	3
TAP	34	240	5
HLD	34	288	5	96
HLD	35	0	7	96
HLD	35	96	0	96
STR	35	192	2
SI_	35	192	2	96	48	7
XTP	35	288	5
HLD	36	0	6	768
TAP	36	336	4
TAP	37	0	4
TAP	37	240	3
TAP	37	336	1
HLD	38	0	1	768
TAP	38	336	3
TAP	39	0	3
TAP	39	288	4
XTP	40	0	7
TAP	40	96	3
TAP	40	96	5
TAP	40	192	0
TAP	40	288	2
TAP	40	288	4
TAP	41	0	7
TAP	41	96	3
TAP	41	96	5
TAP	41	192	0
TAP	41	288	2
TAP	41	288	4
TAP	42	0	7
TAP	42	96	3
TAP	42	96	5
TAP	42	192	0
TAP	42	288	2
TAP	42	288	4
TAP	43	0	6
TAP	43	48	6
TAP	43	96	0
TAP	43	144	0
STR	43	192	7
SF_	43	192	7	96	96	3
TAP	45	0	3
TAP	45	48	2
TAP	45	96	4
TAP	45	144	5
TAP	45	192	3
BRK	45	288	7
STR	46	0	1
SI_	46	0	1	96	48	4
STR	46	96	5
SI_	46	96	5	96	48	0
STR	46	192	1
SI_	46	192	1	96	48	4
STR	46	288	5
SI_	46	288	5	96	48	0
STR	47	0	1
SI_	47	0	1	96	48	4
STR	47	96	5
SI_	47	96	5	96	48	0
STR	47	192	1
SI_	47	192	1	96	48	5
HLD	47	288	7	96
TAP	48	0	0
TAP	48	48	0
TTP	48	144	0	E	0	M1
TTP	48	240	7	E	0	M1
TTP	48	336	6	E	0	M1
TTP	49	48	5	E	0	M1
TTP	49	144	4	E	0	M1
TAP	49	240	3
TAP	49	240	5
TAP	49	288	3
TAP	49	288	5
STR	50	0	6
SI_	50	0	6	96	48	3
STR	50	96	2
SI_	50	96	2	96	48	7
STR	50	192	6
SI_	50	192	6	96	48	3
STR	50	288	2
SI_	50	288	2	96	48	7
STR	51	0	6
SI_	51	0	6	96	48	3
STR	51	96	2
SI_	51	96	2	96	48	7
STR	51	192	6
SI_	51	192	6	96	48	2
HLD	51	288	0	96
TAP	52	0	7
TAP	52	48	7
TTP	52	144	0	E	0	M1
TTP	52	240	1	E	0	M1
TTP	52	336	2	E	0	M1
TAP	53	48	5
TAP	53	96	5
TAP	53	144	3
STR	53	192	3
SI_	53	192	3	96	48	0
STR	53	288	4
SCR	53	288	4	96	240	3
TTP	54	0	0	C	1	M1
HLD	55	0	4	72
TAP	55	0	5
HLD	55	72	3	72
HLD	55	144	2	72
HLD	55	216	1	72
TAP	55	288	0
TAP	56	0	4
TAP	56	48	5
TAP	56	96	3
TAP	56	144	2
TAP	56	192	7
TAP	56	240	6
TAP	56	288	0
TAP	56	336	1
TAP	57	0	2
HLD	57	0	3	72
HLD	57	72	4	72
HLD	57	144	5	72
HLD	57	216	6	72
TAP	57	288	7
TAP	58	0	3
TAP	58	48	2
TAP	58	96	4
TAP	58	144	5
TAP	58	192	0
TAP	58	240	1
TAP	58	288	7
TAP	58	336	6
TAP	59	0	6
HLD	59	0	7	72
HLD	59	72	0	72
HLD	59	144	1	72
HLD	59	216	2	72
TAP	59	288	3
TAP	60	0	7
TAP	60	48	6
TAP	60	96	0
TAP	60	144	1
TAP	60	192	4
TAP	60	240	5
TAP	60	288	3
TAP	60	336	2
HLD	61	0	0	72
TAP	61	0	1
HLD	61	72	7	72
HLD	61	144	6	72
HLD	61	216	5	72
TAP	61	288	4
TAP	62	0	0
TAP	62	48	1
TAP	62	96	7
TAP	62	144	6
TAP	62	192	3
TAP	62	240	2
TAP	62	288	4
TAP	62	336	5
TAP	63	0	4
TAP	63	0	6
HLD	63	48	4	48
HLD	63	48	6	48
HLD	63	120	3	48
HLD	63	120	4	48
HLD	63	192	1	48
HLD	63	192	3	48
HLD	63	264	0	48
HLD	63	264	7	48
TAP	63	336	1
TAP	63	336	6
TAP	64	0	1
TAP	64	0	6
TAP	64	48	7
TAP	64	144	7
TAP	64	192	1
TAP	64	192	6
TAP	64	240	0
TAP	64	336	0
TAP	65	0	1
TAP	65	0	3
HLD	65	48	1	48
HLD	65	48	3	48
HLD	65	120	3	48
HLD	65	120	4	48
HLD	65	192	4	48
HLD	65	192	6	48
HLD	65	264	0	48
HLD	65	264	7	48
TAP	65	336	1
TAP	65	336	6
TAP	66	0	1
TAP	66	0	6
TAP	66	48	0
TAP	66	144	0
XTP	66	192	1
XTP	66	192	7
XTP	66	240	2
XTP	66	240	6
XTP	66	288	3
XTP	66	288	5
TAP	67	0	2
TAP	67	0	6
BRK	67	48	7
BRK	67	144	7
TAP	67	192	1
TAP	67	192	5
BRK	67	240	0
BRK	67	336	0
TAP	68	0	3
TAP	68	0	5
BRK	68	48	7
BRK	68	144	7
TAP	68	192	2
TAP	68	192	4
BRK	68	240	0
BST	68	336	0
SI_	68	336	0	96	48	4
TAP	69	48	6
STR	69	96	7
SI_	69	96	7	96	48	3
TAP	69	240	1
STR	69	288	0
SI_	69	288	0	96	48	4
TAP	70	48	6
STR	70	96	7
SI_	70	96	7	96	48	3
TAP	70	240	0
TAP	70	288	0
TAP	71	0	2
STR	71	0	5
SI_	71	0	5	96	48	2
STR	71	48	2
SI_	71	48	2	96	48	7
TAP	71	48	5
XTP	71	240	0
XTP	71	240	6
XTP	71	288	0
XTP	71	288	6
STR	72	0	2
SI_	72	0	2	96	48	5
TAP	72	0	5
TAP	72	48	2
STR	72	48	5
SI_	72	48	5	96	48	0
XTP	72	240	1
XTP	72	240	7
XTP	72	288	1
XTP	72	288	7
STR	73	0	2
SI_	73	0	2	96	48	7
TAP	73	0	5
TAP	73	48	2
STR	73	48	5
SI_	73	48	5	96	48	0
XTP	73	240	1
XTP	73	240	6
XTP	73	288	1
XTP	73	288	6
BRK	74	0	0
BRK	74	24	7
BRK	74	48	0
BRK	74	72	7
BRK	74	96	0
XTP	74	144	1
XTP	74	144	6
TAP	74	240	3
TAP	74	240	4
TAP	74	288	3
TAP	74	288	4
TAP	75	0	2
STR	75	0	6
SI_	75	0	6	96	48	3
STR	75	96	1
SI_	75	96	1	96	48	4
STR	75	192	7
SI_	75	192	7	96	48	3
STR	75	288	0
SI_	75	288	0	96	48	4
STR	76	0	5
SI_	76	0	5	96	48	2
STR	76	96	1
SI_	76	96	1	96	48	6
HLD	76	192	7	96
BRK	76	288	0
TAP	77	0	2
TAP	77	0	3
TAP	77	48	1
TAP	77	48	4
TAP	77	144	4
TAP	77	144	5
TAP	77	192	3
TAP	77	192	6
TAP	77	288	2
TAP	77	288	3
TAP	77	336	1
TAP	77	336	4
TAP	78	48	4
TAP	78	48	5
TAP	78	96	3
HLD	78	96	6	96
TAP	78	192	0
TAP	78	240	0
TAP	78	288	7
TAP	78	336	7
TAP	79	0	6
TAP	79	0	7
TAP	79	48	0
TAP	79	48	5
TAP	79	144	0
TAP	79	144	1
TAP	79	192	2
TAP	79	192	7
TAP	79	288	6
TAP	79	288	7
TAP	79	336	0
TAP	79	336	5
TAP	80	48	0
TAP	80	48	1
TAP	80	96	2
TAP	80	96	7
TAP	80	192	3
TAP	80	216	4
TAP	80	240	3
TAP	80	264	4
TAP	80	288	2
TAP	80	312	5
HLD	80	336	2	144
TTP	81	96	0	C	1	M1

T_REC_TAP	239
T_REC_BRK	20
T_REC_XTP	83
T_REC_HLD	67
T_REC_XHO	0
T_REC_STR	47
T_REC_BST	1
T_REC_XST	0
T_REC_TTP	10
T_REC_THO	0
T_REC_SLD	48
T_REC_ALL	515
T_NUM_TAP	379
T_NUM_BRK	21
T_NUM_HLD	67
T_NUM_SLD	48
T_NUM_ALL	515
T_JUDGE_TAP	400
T_JUDGE_HLD	205
T_JUDGE_SLD	48
T_JUDGE_ALL	653
TTM_EACHPAIRS	76
TTM_SCR_TAP	189500
TTM_SCR_BRK	54600
TTM_SCR_HLD	67000
TTM_SCR_SLD	72000
TTM_SCR_ALL	383100
TTM_SCR_S	369600
TTM_SCR_SS	381000
TTM_RAT_ACV	10055

