VERSION	0.00.00	1.03.00
FES_MODE	0
BPM_DEF	168.000	168.000	168.000	168.000
MET_DEF	4	4
RESOLUTION	384
CLK_DEF	384
COMPATIBLE_CODE	MA2

BPM	0	0	168.000
MET	0	0	4	4

HLD	2	0	2	384
HLD	3	0	3	384
HLD	4	0	4	384
TAP	5	0	5
TAP	6	0	6
TAP	6	96	6
TAP	6	192	7
TAP	6	288	7
TAP	7	0	0
TAP	7	96	0
TAP	7	192	1
TAP	7	288	1
TAP	8	0	2
TAP	8	96	3
TAP	8	192	4
TAP	8	288	5
TAP	9	0	6
TAP	9	96	7
TAP	9	192	0
TAP	9	288	1
STR	10	0	2
SCR	10	0	2	96	144	5
XTP	11	0	6
XTP	11	96	6
TAP	11	192	0
TAP	11	192	7
BRK	11	288	1
BRK	11	288	6
TAP	12	0	5
TAP	12	96	4
TAP	12	96	6
TAP	12	192	5
TAP	12	240	5
TAP	12	288	4
TAP	12	288	5
TAP	13	0	2
TAP	13	96	1
TAP	13	96	3
TAP	13	192	2
TAP	13	240	2
TAP	13	288	2
TAP	13	288	3
TAP	14	0	5
XTP	14	48	5
XTP	14	144	6
XTP	14	240	7
XTP	14	336	0
XTP	15	48	1
XTP	15	144	2
XTP	15	144	3
XTP	15	192	2
XTP	15	192	3
TAP	15	288	3
TAP	15	288	4
TAP	16	0	2
TAP	16	96	1
TAP	16	96	3
TAP	16	192	2
TAP	16	240	2
TAP	16	288	2
TAP	16	288	3
TAP	17	0	5
TAP	17	96	4
TAP	17	96	6
TAP	17	192	5
TAP	17	240	5
TAP	17	288	4
TAP	17	288	5
TAP	18	0	2
XTP	18	48	2
XTP	18	144	1
XTP	18	240	0
XTP	18	336	7
XTP	19	48	6
XTP	19	144	5
XTP	19	192	4
XTP	19	192	5
BRK	19	288	3
BRK	19	288	6
HLD	20	0	2	192
TAP	20	96	3
TAP	20	192	3
TAP	20	288	2
TAP	20	288	3
TAP	21	0	4
TAP	21	48	4
TAP	21	96	4
TAP	21	192	3
TAP	21	240	3
TAP	21	288	3
HLD	22	0	5	192
TAP	22	96	4
TAP	22	192	4
TAP	22	288	4
TAP	22	288	5
TAP	23	0	3
TAP	23	48	3
TAP	23	96	3
TAP	23	192	2
TAP	23	240	2
TAP	23	288	2
HLD	24	0	1	192
TAP	24	96	0
TAP	24	192	0
TAP	24	288	0
TAP	24	288	1
TAP	25	0	7
TAP	25	48	7
TAP	25	96	7
TAP	25	192	0
TAP	25	240	0
TAP	25	288	0
HLD	26	0	6	192
TAP	26	96	7
TAP	26	192	7
TAP	26	288	6
TAP	26	288	7
TAP	27	0	0
TAP	27	48	0
TAP	27	96	0
TAP	27	192	7
TAP	27	240	7
TAP	27	288	0
TAP	27	288	7
STR	28	0	6
SI_	28	0	6	96	144	2
TAP	29	0	1
XTP	29	48	1
XTP	29	144	0
XTP	29	240	7
XTP	29	336	6
STR	30	0	6
SI_	30	0	6	96	144	2
TAP	31	0	1
XTP	31	48	1
XTP	31	144	0
TAP	31	240	0
TAP	31	240	7
TAP	31	288	0
TAP	31	288	7
STR	32	0	1
SI_	32	0	1	96	144	5
TAP	33	0	6
XTP	33	48	6
XTP	33	144	7
XTP	33	240	0
XTP	33	336	1
XTP	34	48	2
XTP	34	144	3
XTP	34	240	4
XTP	34	288	4
TAP	35	0	3
TAP	35	0	4
TAP	35	96	2
TAP	35	96	5
TAP	35	192	1
TAP	35	192	6
BRK	35	288	0
BRK	35	288	7
HLD	36	0	6	384
HLD	37	0	7	384
HLD	38	0	0	384
TAP	39	0	1
TAP	39	192	0
TAP	39	192	1
TAP	40	0	2
TAP	40	192	3
TAP	41	0	4
TAP	41	192	5
TAP	42	0	6
TAP	42	192	7
TAP	43	0	0
TAP	43	96	0
TAP	43	96	7
TAP	43	192	1
TAP	43	192	6
TAP	43	288	2
TAP	43	288	5
XST	44	0	3
SCL	44	0	3	96	144	0
XST	44	0	4
SCR	44	0	4	96	144	7
TAP	45	0	0
TAP	45	0	7
TAP	45	48	0
TAP	45	48	7
TAP	45	96	0
TAP	45	96	7
TAP	45	192	1
TAP	45	192	6
TAP	45	240	1
TAP	45	240	6
BRK	45	288	1
BRK	45	288	6
TTP	46	0	0	E	0	L1
TTP	46	96	1	E	0	L1
TTP	46	192	2	E	0	L1
TTP	46	288	3	E	0	L1
TTP	47	0	4	E	0	L1
TTP	47	96	5	E	0	L1
TTP	47	192	6	E	0	L1
XST	48	0	7
SCL	48	0	7	96	144	4
TAP	49	0	2
TAP	49	96	2
BRK	49	192	3
BRK	49	192	4
TTP	50	0	4	E	0	L1
TTP	50	96	3	E	0	L1
TTP	50	192	2	E	0	L1
TTP	50	288	1	E	0	L1
TTP	51	0	0	E	0	L1
TTP	51	96	7	E	0	L1
TTP	51	192	6	E	0	L1
XST	52	0	4
SCR	52	0	4	96	144	7
TAP	53	0	1
TAP	53	96	1
TAP	53	192	0
TAP	53	288	0
BST	54	0	0
SI_	54	0	0	96	144	4
BST	54	0	7
SI_	54	0	7	96	144	3
TAP	55	0	5
TAP	55	96	4
TAP	55	96	5
TAP	55	192	3
TAP	55	192	6
TAP	55	288	3
TAP	55	288	6
TAP	56	0	7
TAP	56	48	7
TAP	56	96	7
TAP	56	192	0
TAP	56	240	0
TAP	56	288	0
TAP	57	0	1
TAP	57	96	0
TAP	57	96	1
TAP	57	192	2
TAP	57	192	7
TAP	57	288	2
TAP	57	288	7
TAP	58	0	3
TAP	58	48	3
TAP	58	96	3
TAP	58	192	4
TAP	58	240	4
TAP	58	288	4
BRK	59	0	5
TAP	59	96	6
TAP	59	96	7
TAP	59	192	0
TAP	59	192	5
TAP	59	288	0
TAP	59	288	5
TAP	60	0	4
TAP	60	48	4
TAP	60	96	4
TAP	60	192	3
TAP	60	240	3
TAP	60	288	3
TAP	61	0	2
TAP	61	96	0
TAP	61	96	1
TAP	61	192	2
TAP	61	192	7
TAP	61	288	2
TAP	61	288	7
TAP	62	0	3
TAP	62	48	3
TAP	62	96	3
TAP	62	192	3
TAP	62	192	4
TAP	62	240	3
TAP	62	240	4
BRK	62	288	3
BRK	62	288	4
HLD	63	0	4	96
HLD	63	0	5	96
HLD	63	192	6	96
HLD	63	192	7	96
TAP	64	0	0
TAP	64	0	1
XTP	64	48	0
XTP	64	48	1
XTP	64	144	2
XTP	64	144	3
XTP	64	240	4
XTP	64	240	5
XTP	64	336	6
XTP	64	336	7
HLD	65	0	6	96
HLD	65	0	7	96
HLD	65	192	4	96
HLD	65	192	5	96
TAP	66	0	2
TAP	66	0	3
XTP	66	48	2
XTP	66	48	3
XTP	66	144	0
XTP	66	144	1
XTP	66	240	6
XTP	66	240	7
XTP	66	288	6
XTP	66	288	7
TAP	67	0	4
TAP	67	0	5
XTP	67	48	4
XTP	67	48	5
XTP	67	144	6
XTP	67	144	7
XTP	67	240	0
XTP	67	240	1
XTP	67	336	2
XTP	67	336	3
XTP	68	48	4
XTP	68	48	5
XTP	68	144	6
XTP	68	144	7
XTP	68	240	0
XTP	68	240	1
XTP	68	336	2
XTP	68	336	3
HLD	69	0	2	96
HLD	69	0	3	96
HLD	69	192	4	96
HLD	69	192	5	96
HLD	70	0	2	96
HLD	70	0	3	96
TAP	70	192	1
TAP	70	192	4
STR	71	0	0
SI_	71	0	0	96	144	3
SI_	71	0	0	96	144	5
STR	72	0	4
SI_	72	0	4	96	144	1
SI_	72	0	4	96	144	7
STR	73	0	0
SI_	73	0	0	96	144	3
SI_	73	0	0	96	144	5
XTP	74	0	4
XTP	74	96	3
XTP	74	96	4
TAP	74	192	2
TAP	74	192	5
TAP	74	288	1
TAP	74	288	6
BRK	75	0	7
TAP	75	96	6
TAP	75	192	5
TAP	75	288	4
TAP	76	0	3
TAP	76	96	2
TAP	76	192	1
TAP	76	288	0
TAP	77	0	0
TAP	77	0	7
TAP	77	48	0
TAP	77	48	7
TAP	77	144	1
TAP	77	144	6
TAP	77	192	1
TAP	77	192	6
TAP	77	288	2
TAP	77	288	5
TAP	77	336	2
TAP	77	336	5
TAP	78	48	3
TAP	78	48	4
TAP	78	96	3
TAP	78	96	4
TAP	78	192	2
TAP	78	192	5
TAP	78	288	6
TAP	79	0	6
TAP	79	0	7
TAP	79	48	6
TAP	79	48	7
TAP	79	144	0
TAP	79	144	1
TAP	79	192	0
TAP	79	192	1
TAP	79	288	2
TAP	79	288	3
TAP	79	336	2
TAP	79	336	3
TAP	80	48	4
TAP	80	48	5
TAP	80	96	4
TAP	80	96	5
TAP	80	192	3
TAP	80	192	4
TAP	80	240	3
TAP	80	240	4
TAP	80	288	3
TAP	80	288	4
TAP	80	336	3
TAP	80	336	4
BST	81	96	2
SXR	81	96	2	96	576	4
BST	81	96	5
SXL	81	96	5	96	576	3

T_REC_TAP	251
T_REC_BRK	14
T_REC_XTP	68
T_REC_HLD	24
T_REC_XHO	0
T_REC_STR	7
T_REC_BST	4
T_REC_XST	4
T_REC_TTP	14
T_REC_THO	0
T_REC_SLD	18
T_REC_ALL	404
T_NUM_TAP	344
T_NUM_BRK	18
T_NUM_HLD	24
T_NUM_SLD	18
T_NUM_ALL	404
T_JUDGE_TAP	362
T_JUDGE_HLD	92
T_JUDGE_SLD	18
T_JUDGE_ALL	472
TTM_EACHPAIRS	106
TTM_SCR_TAP	172000
TTM_SCR_BRK	46800
TTM_SCR_HLD	24000
TTM_SCR_SLD	27000
TTM_SCR_ALL	269800
TTM_SCR_S	260000
TTM_SCR_SS	268000
TTM_RAT_ACV	10067

