VERSION	0.00.00	1.03.00
FES_MODE	0
BPM_DEF	168.000	168.000	168.000	168.000
MET_DEF	4	4
RESOLUTION	384
CLK_DEF	384
COMPATIBLE_CODE	MA2

BPM	0	0	168.000
MET	0	0	4	4

HLD	2	0	0	384
TAP	4	0	0
TAP	5	0	0
HLD	6	0	7	384
TAP	8	0	7
TAP	9	0	7
HLD	10	0	0	384
HLD	10	0	7	384
TAP	12	0	1
TAP	12	192	1
TAP	13	0	0
TAP	13	0	1
TAP	14	0	2
TAP	14	192	2
TAP	15	0	2
TAP	15	0	3
TAP	16	0	5
TAP	16	192	5
TAP	17	0	4
TAP	17	0	5
TAP	18	0	6
TAP	18	192	6
TAP	19	0	6
TAP	19	0	7
TAP	20	0	7
TAP	20	192	7
TAP	21	0	6
TAP	21	0	7
TAP	22	0	5
TAP	22	192	5
TAP	23	0	4
TAP	23	0	5
TAP	24	0	2
TAP	24	192	2
TAP	25	0	2
TAP	25	0	3
TAP	26	0	1
TAP	26	192	1
TAP	27	0	0
TAP	27	0	1
TAP	28	0	2
TAP	28	192	2
TAP	29	0	3
TAP	29	192	3
TAP	30	0	4
TAP	30	192	4
TAP	31	0	4
TAP	31	0	5
TAP	32	0	6
TAP	32	192	6
TAP	33	0	7
TAP	33	192	7
TAP	34	0	0
TAP	34	192	0
XTP	35	0	0
XTP	35	0	7
STR	36	0	7
SI_	36	0	7	96	288	4
STR	38	0	0
SI_	38	0	0	96	288	3
STR	40	0	4
SI_	40	0	4	96	288	7
TAP	42	0	0
TAP	42	192	0
TAP	43	0	7
TAP	43	192	7
HLD	44	0	0	192
HLD	44	0	7	192
TAP	45	0	0
TAP	45	0	7
TAP	45	96	0
TAP	45	96	7
TAP	45	192	0
TAP	45	192	7
BRK	46	0	1
TAP	46	96	1
TAP	46	192	1
TAP	47	0	2
TAP	47	192	2
TAP	48	0	3
TAP	48	96	3
TAP	48	192	3
TAP	49	0	3
TAP	49	0	4
TAP	50	0	5
TAP	50	96	5
TAP	50	192	5
TAP	51	0	6
TAP	51	192	6
TAP	52	0	7
TAP	52	96	7
TAP	52	192	7
TAP	53	0	0
TAP	53	0	7
TAP	53	192	0
TAP	53	192	7
BRK	54	0	1
BRK	54	0	6
TAP	55	0	5
TAP	55	96	5
TAP	55	192	5
TAP	56	0	4
TAP	56	0	5
TAP	56	192	4
TAP	56	192	5
TAP	57	0	3
TAP	57	96	3
TAP	57	192	3
TAP	58	0	2
TAP	58	0	3
TAP	58	192	2
TAP	58	192	3
TAP	59	0	1
TAP	59	96	1
TAP	59	192	1
TAP	60	0	0
TAP	60	0	1
TAP	60	192	0
TAP	60	192	1
TAP	61	0	7
TAP	61	96	7
TAP	61	192	7
TAP	62	0	0
TAP	62	0	7
TAP	62	192	0
TAP	62	192	7
TAP	63	0	1
TAP	63	96	1
TAP	63	192	1
TAP	64	0	2
TAP	64	96	2
TAP	64	192	2
TAP	65	0	3
TAP	65	96	3
TAP	65	192	3
TAP	66	0	4
TAP	66	96	4
TAP	66	192	3
TAP	66	192	4
TAP	67	0	5
TAP	67	96	5
TAP	67	192	5
TAP	68	0	6
TAP	68	96	6
TAP	68	192	6
TAP	69	0	7
TAP	69	96	7
TAP	69	192	7
TAP	70	0	0
TAP	70	96	0
TAP	70	192	0
HLD	71	0	0	192
HLD	71	0	7	192
TAP	72	0	0
TAP	72	0	7
TAP	72	192	1
HLD	73	0	0	192
HLD	73	0	1	192
TAP	74	0	0
TAP	74	0	1
TAP	74	192	7
HLD	75	0	6	192
HLD	75	0	7	192
XTP	76	0	0
TTP	77	0	7	B	0	L1
TTP	77	192	0	B	0	L1
TTP	78	0	6	B	0	L1
TTP	78	192	1	B	0	L1
TTP	79	0	5	B	0	L1
TTP	79	192	2	B	0	L1
TTP	80	0	4	B	0	L1
THO	80	192	0	288	C	1	L1

T_REC_TAP	140
T_REC_BRK	3
T_REC_XTP	3
T_REC_HLD	12
T_REC_XHO	0
T_REC_STR	3
T_REC_BST	0
T_REC_XST	0
T_REC_TTP	7
T_REC_THO	1
T_REC_SLD	3
T_REC_ALL	172
T_NUM_TAP	153
T_NUM_BRK	3
T_NUM_HLD	13
T_NUM_SLD	3
T_NUM_ALL	172
T_JUDGE_TAP	156
T_JUDGE_HLD	70
T_JUDGE_SLD	3
T_JUDGE_ALL	229
TTM_EACHPAIRS	33
TTM_SCR_TAP	76500
TTM_SCR_BRK	7800
TTM_SCR_HLD	13000
TTM_SCR_SLD	4500
TTM_SCR_ALL	101800
TTM_SCR_S	98500
TTM_SCR_SS	101500
TTM_RAT_ACV	10029

