VERSION	0.00.00	1.03.00
FES_MODE	0
BPM_DEF	130.000	130.000	130.000	130.000
MET_DEF	4	4
RESOLUTION	384
CLK_DEF	384
COMPATIBLE_CODE	MA2

BPM	0	0	130.000
MET	0	0	4	4

STR	3	288	0
SCR	3	288	0	96	48	3
STR	3	288	4
SCR	3	288	4	96	48	7
STR	4	0	0
SI_	4	0	0	96	48	4
TAP	4	0	4
STR	4	192	3
SLL	4	192	3	96	96	7
TAP	4	192	5
TAP	4	288	3
STR	4	288	7
SLL	4	288	7	96	96	3
TTP	5	96	0	E	0	M1
TTP	5	96	7	B	0	M1
TTP	5	96	7	E	0	M1
TAP	5	192	1
TAP	5	192	5
STR	5	288	2
SI_	5	288	2	96	48	5
TAP	5	288	6
TAP	6	0	2
TAP	6	0	7
TAP	6	96	2
STR	6	96	6
SI_	6	96	6	96	48	1
TAP	6	192	3
TAP	6	192	6
STR	6	288	2
SCL	6	288	2	96	48	0
STR	6	288	6
SCL	6	288	6	96	48	4
STR	7	0	2
SXL	7	0	2	96	96	3
SLL	7	0	2	96	96	3
TAP	7	0	6
TAP	7	288	1
TAP	7	288	4
TAP	7	352	3
TAP	7	352	6
HLD	8	0	3	96
HLD	8	0	6	96
TAP	8	160	1
TAP	8	160	4
HLD	8	192	1	96
HLD	8	192	4	96
TAP	8	352	3
TAP	8	352	6
TAP	9	0	3
TAP	9	0	6
TAP	9	64	1
TAP	9	64	4
TAP	9	96	1
STR	9	96	4
SCR	9	96	4	96	48	7
TAP	9	192	3
STR	9	192	4
SCL	9	192	4	96	48	1
TAP	10	0	2
TAP	10	0	7
TAP	10	96	1
TAP	10	96	5
STR	10	192	2
SV_	10	192	2	96	48	7
STR	10	192	4
SV_	10	192	4	96	48	7
STR	11	0	3
SI_	11	0	3	96	48	1
STR	11	0	5
SI_	11	0	5	96	48	7
TAP	11	96	3
TAP	11	96	5
XTP	11	192	2
XTP	11	192	6
STR	11	288	0
SXR	11	288	0	96	144	2
TAP	11	288	4
TAP	12	192	1
TAP	12	192	3
STR	12	288	3
SI_	12	288	3	96	48	6
TAP	12	288	5
TAP	13	0	1
STR	13	0	3
SI_	13	0	3	96	48	0
STR	13	96	3
SI_	13	96	3	96	48	6
TAP	13	96	5
TAP	13	192	1
STR	13	192	3
SI_	13	192	3	96	48	0
TAP	13	288	3
STR	13	288	5
SXR	13	288	5	96	192	2
XTP	14	288	0
XTP	14	288	7
HLD	15	0	3	192
HLD	15	0	4	192
TTP	15	256	2	B	0	M1
TTP	15	256	2	E	0	M1
TTP	15	256	3	E	0	M1
TTP	15	288	5	B	0	M1
TTP	15	288	5	E	0	M1
TTP	15	288	6	E	0	M1
STR	16	0	0
SCR	16	0	0	96	48	4
TAP	16	0	3
TAP	16	96	0
TAP	16	96	5
TAP	16	192	3
STR	16	192	7
SCL	16	192	7	96	48	3
TAP	16	288	2
TAP	16	288	7
STR	17	0	0
SI_	17	0	0	96	48	3
TAP	17	0	4
TAP	17	96	0
STR	17	96	7
SI_	17	96	7	96	48	4
TAP	17	192	3
TAP	17	192	7
TAP	17	288	3
TAP	17	288	4
HLD	18	0	3	96
HLD	18	0	5	96
TAP	18	160	2
TAP	18	160	4
HLD	18	192	2	96
HLD	18	192	4	96
TAP	19	0	3
TAP	19	0	5
TAP	19	96	2
TAP	19	96	4
TAP	19	192	3
TAP	19	192	5
TAP	19	288	2
STR	19	288	4
SCR	19	288	4	96	144	3
SXL	19	288	4	96	144	3
TTP	20	192	0	C	0	M1
TTP	20	192	1	B	0	M1
TTP	20	192	5	B	0	M1
STR	20	288	0
SI_	20	288	0	96	48	4
TAP	20	288	6
TAP	21	0	0
STR	21	0	7
SI_	21	0	7	96	48	3
STR	21	96	1
SI_	21	96	1	96	48	5
TAP	21	96	7
TAP	21	192	1
TAP	21	192	7
STR	21	288	4
SCL	21	288	4	96	48	0
TAP	21	288	6
TAP	22	0	4
TAP	22	0	5
TAP	22	96	1
STR	22	96	3
SCR	22	96	3	96	48	7
TAP	22	192	2
TAP	22	192	3
STR	22	288	4
SCL	22	288	4	96	48	0
TAP	22	288	6
TAP	23	0	4
TAP	23	0	5
STR	23	96	1
SI_	23	96	1	96	48	3
TAP	23	96	3
TAP	23	192	1
STR	23	192	6
SI_	23	192	6	96	48	4
STR	23	288	3
SCL	23	288	3	96	96	4
TAP	23	288	6
STR	24	192	1
SCL	24	192	1	96	48	6
TAP	24	192	5
TAP	24	288	1
STR	24	288	6
SXL	24	288	6	96	144	1
TAP	25	192	0
TAP	25	192	4
STR	25	288	1
SV_	25	288	1	96	48	2
STR	25	288	5
SV_	25	288	5	96	48	6
STR	26	96	1
SV_	26	96	1	96	48	0
STR	26	96	7
SV_	26	96	7	96	48	6
STR	26	288	2
SI_	26	288	2	96	48	6
STR	26	288	5
SI_	26	288	5	96	48	1
XST	27	96	0
SXL	27	96	0	96	96	0
TAP	27	96	7
TAP	27	192	0
STR	27	192	7
SI_	27	192	7	96	48	4
STR	28	0	1
SI_	28	0	1	96	48	3
TAP	28	0	5
STR	28	96	1
SI_	28	96	1	96	48	7
TAP	28	96	4
TAP	28	192	1
STR	28	192	5
SI_	28	192	5	96	48	3
TAP	28	288	2
TAP	28	288	5
TAP	29	0	1
TAP	29	0	4
TAP	29	32	2
TAP	29	32	5
TAP	29	64	3
TAP	29	64	6
HLD	29	96	3	64
HLD	29	96	6	64
TAP	29	192	3
TAP	29	192	6
TAP	29	224	2
TAP	29	224	5
TAP	29	256	1
TAP	29	256	4
HLD	29	288	1	64
HLD	29	288	4	64
TAP	30	0	2
TAP	30	0	3
TAP	30	32	3
TAP	30	32	4
TAP	30	64	4
TAP	30	64	5
HLD	30	96	4	64
HLD	30	96	5	64
TAP	30	192	4
TAP	30	192	5
TAP	30	224	3
TAP	30	224	4
TAP	30	256	2
TAP	30	256	3
HLD	30	288	2	64
HLD	30	288	3	64
TAP	31	0	1
TAP	31	0	4
TAP	31	32	2
TAP	31	32	5
TAP	31	64	3
TAP	31	64	6
STR	31	96	3
SI_	31	96	3	96	48	0
STR	31	96	6
SI_	31	96	6	96	48	3
XTP	31	192	3
XTP	31	192	6
STR	31	288	0
SI_	31	288	0	96	48	3
STR	31	288	4
SI_	31	288	4	96	48	7
STR	32	96	3
SI_	32	96	3	96	48	0
STR	32	96	7
SI_	32	96	7	96	48	4
XST	32	288	0
SI_	32	288	0	96	48	3
XST	32	288	4
SI_	32	288	4	96	48	7
XTP	32	320	0
XTP	32	320	4
STR	33	96	3
SI_	33	96	3	96	48	0
TAP	33	96	7
TAP	33	192	3
STR	33	192	7
SI_	33	192	7	96	48	3
STR	33	288	0
SI_	33	288	0	96	48	4
TAP	33	288	7
TAP	34	0	0
STR	34	0	7
SCL	34	0	7	96	48	4
STR	34	96	0
SCR	34	96	0	96	48	3
TAP	34	96	7
TAP	34	192	0
STR	34	192	4
SI_	34	192	4	96	48	6
STR	34	288	3
SXR	34	288	3	96	144	3
STR	34	288	4
SXL	34	288	4	96	144	7
XTP	35	192	2
XTP	35	192	6
TAP	35	288	4
TAP	35	288	5
STR	36	0	3
SCL	36	0	3	96	96	0
TAP	36	0	4
TTP	36	192	4	B	0	M1
TTP	36	192	5	E	0	M1
STR	36	288	0
SXL	36	288	0	96	192	3
TTP	36	288	5	B	0	M1
TTP	36	288	6	E	0	M1
TAP	37	0	0
STR	37	0	6
SLL	37	0	6	96	96	7
XTP	37	256	3
XTP	37	256	7
XTP	37	288	3
XTP	37	288	7
XTP	37	352	1
XTP	37	352	5
XTP	38	0	1
XTP	38	0	5
STR	38	96	2
SCL	38	96	2	96	48	0
STR	38	96	7
SCL	38	96	7	96	48	4
STR	38	288	1
SLR	38	288	1	96	96	7
STR	38	288	4
SV_	38	288	4	96	96	5
STR	39	192	0
SUR	39	192	0	96	48	4
STR	39	192	7
SXR	39	192	7	96	48	5
XTP	39	288	0
XTP	39	288	7
HLD	40	0	3	96
HLD	40	0	6	96
TAP	40	160	1
TAP	40	160	4
HLD	40	192	1	96
HLD	40	192	4	96
TAP	40	352	4
TAP	40	352	5
HLD	41	0	4	96
HLD	41	0	5	96
TAP	41	160	2
TAP	41	160	3
HLD	41	192	2	96
HLD	41	192	3	96
TAP	41	352	3
TAP	41	352	5
HLD	42	0	3	96
HLD	42	0	5	96
TAP	42	160	2
TAP	42	160	4
HLD	42	192	2	96
HLD	42	192	4	96
TAP	42	352	3
TAP	42	352	4
TAP	43	0	3
TAP	43	0	4
STR	43	96	2
SSR	43	96	2	96	288	6
TAP	43	96	5
TTP	44	96	0	C	0	M1
TTP	44	96	3	B	0	M1
TTP	44	96	4	B	0	M1
BST	45	0	3
SI_	45	0	3	96	48	0
BST	45	0	4
SI_	45	0	4	96	48	7
TAP	45	96	3
TAP	45	96	4
TTP	45	192	0	C	0	M1
TTP	45	192	2	B	0	M1
TTP	45	192	6	B	0	M1
TAP	45	288	1
STR	45	288	7
SV_	45	288	7	96	48	4
STR	46	0	0
SV_	46	0	0	96	48	3
TAP	46	0	7
TAP	46	96	0
STR	46	96	6
SV_	46	96	6	96	48	1
TAP	46	192	2
TAP	46	192	6
STR	46	288	0
SCL	46	288	0	96	48	4
TAP	46	288	2
TAP	47	96	5
STR	47	96	7
SCR	47	96	7	96	48	3
STR	47	288	0
SCL	47	288	0	96	48	4
TAP	47	288	2
TAP	48	96	5
STR	48	96	7
SV_	48	96	7	96	48	4
STR	48	192	3
SV_	48	192	3	96	48	0
TAP	48	192	7
TAP	48	288	3
STR	48	288	4
SCR	48	288	4	96	96	3
STR	49	192	2
SCL	49	192	2	96	48	7
STR	49	192	6
SCL	49	192	6	96	48	3
STR	49	288	2
SXR	49	288	2	96	144	7
STR	49	288	6
SXR	49	288	6	96	144	3
TAP	50	192	1
TAP	50	192	5
STR	50	288	2
SV_	50	288	2	96	48	1
STR	50	288	6
SV_	50	288	6	96	48	5
STR	51	96	0
SV_	51	96	0	96	48	1
STR	51	96	6
SV_	51	96	6	96	48	7
STR	51	288	2
SI_	51	288	2	96	48	4
STR	51	288	5
SI_	51	288	5	96	48	3
TAP	52	96	0
XST	52	96	7
SXR	52	96	7	96	96	7
STR	52	192	0
SI_	52	192	0	96	48	2
TAP	52	192	7
STR	52	288	0
SCR	52	288	0	96	144	7
SXL	52	288	0	96	144	7
TTP	53	192	2	B	0	M1
TTP	53	192	3	B	0	M1
TTP	53	192	4	B	0	M1
TTP	53	192	5	B	0	M1
TAP	53	288	0
STR	53	288	6
SI_	53	288	6	96	48	2
STR	54	0	2
SI_	54	0	2	96	48	6
TAP	54	0	6
TAP	54	96	2
STR	54	96	7
SI_	54	96	7	96	48	3
TAP	54	192	1
TAP	54	192	7
STR	54	288	0
SCR	54	288	0	96	48	4
TAP	54	288	4
TAP	55	0	0
TAP	55	0	6
TAP	55	96	2
STR	55	96	7
SCL	55	96	7	96	48	3
TAP	55	192	1
TAP	55	192	7
STR	55	288	0
SI_	55	288	0	96	48	3
TAP	55	288	5
TAP	56	0	0
STR	56	0	4
SI_	56	0	4	96	48	7
STR	56	96	3
SCL	56	96	3	96	96	6
STR	56	96	4
SUL	56	96	4	96	96	5
STR	57	0	4
SI_	57	0	4	96	48	1
STR	57	0	5
SI_	57	0	5	96	48	0
STR	57	192	2
SI_	57	192	2	96	48	7
STR	57	192	3
SI_	57	192	3	96	48	6
TAP	58	0	3
STR	58	0	5
SI_	58	0	5	96	48	0
STR	58	96	2
SI_	58	96	2	96	48	7
TAP	58	96	5
TAP	58	192	2
TAP	58	192	4
STR	58	288	4
SCR	58	288	4	96	48	7
TAP	58	288	5
TAP	59	0	3
STR	59	0	4
SCL	59	0	4	96	48	1
STR	59	96	4
SCR	59	96	4	96	48	7
TAP	59	96	7
TAP	59	192	1
STR	59	192	4
SCL	59	192	4	96	48	1
TAP	59	288	4
TAP	59	288	7
XTP	60	0	0
XTP	60	0	7
XTP	60	64	1
XTP	60	64	3
XTP	60	96	1
XST	60	96	3
SI_	60	96	3	96	48	0
BRK	60	192	3
BST	60	192	4
SI_	60	192	4	96	48	7
BRK	60	288	4
BRK	60	288	6
HLD	61	0	0	64
HLD	61	0	7	64
TAP	61	96	6
TAP	61	96	7
TAP	61	160	0
TAP	61	160	7
HLD	61	192	0	64
HLD	61	192	7	64
TAP	61	288	0
TAP	61	288	1
STR	62	0	1
SCR	62	0	1	96	48	4
STR	62	0	7
SCL	62	0	7	96	48	4
TAP	62	96	1
STR	62	96	7
SXR	62	96	7	96	144	4
TTP	62	192	3	B	0	M1
TTP	62	192	3	E	0	M1
TTP	62	288	0	B	0	M1
TTP	62	288	1	E	0	M1
HLD	63	0	1	64
HLD	63	0	3	64
TAP	63	96	3
TAP	63	96	4
TAP	63	160	4
TAP	63	160	6
HLD	63	192	4	64
HLD	63	192	6	64
TAP	63	288	3
TAP	63	288	4
TAP	63	352	1
TAP	63	352	3
TAP	64	0	1
TAP	64	0	3
TAP	64	64	4
TAP	64	64	6
TAP	64	96	4
TAP	64	96	6
TAP	64	160	3
TAP	64	160	4
STR	64	192	3
SI_	64	192	3	96	48	0
STR	64	192	4
SI_	64	192	4	96	48	7
XTP	64	288	3
XTP	64	288	4
STR	65	0	1
SI_	65	0	1	96	48	5
TAP	65	0	4
TAP	65	32	0
TAP	65	32	3
TAP	65	192	3
STR	65	192	6
SI_	65	192	6	96	48	2
TAP	65	224	4
TAP	65	224	7
STR	66	0	0
SCR	66	0	0	96	48	3
STR	66	0	4
SCR	66	0	4	96	48	7
STR	66	96	0
SI_	66	96	0	96	48	4
TAP	66	96	4
TAP	66	192	0
STR	66	192	4
SI_	66	192	4	96	48	7
TAP	66	288	3
TAP	66	288	4
TTP	67	0	3	E	0	M1
TAP	67	0	7
TTP	67	64	2	E	0	M1
TAP	67	64	6
TTP	67	128	1	E	0	M1
TAP	67	128	5
TAP	67	192	0
TTP	67	192	5	E	0	M1
TAP	67	256	1
TTP	67	256	6	E	0	M1
TAP	67	320	2
TTP	67	320	7	E	0	M1
TTP	68	0	3	B	0	M1
TTP	68	0	3	E	0	M1
TAP	68	0	7
TAP	68	96	0
TTP	68	96	4	B	0	M1
TTP	68	96	5	E	0	M1
TTP	68	192	1	B	0	M1
TTP	68	192	1	E	0	M1
TAP	68	192	5
STR	68	288	2
SI_	68	288	2	96	48	5
TTP	68	288	6	B	0	M1
TTP	68	288	7	E	0	M1

T_REC_TAP	226
T_REC_BRK	3
T_REC_XTP	27
T_REC_HLD	38
T_REC_XHO	0
T_REC_STR	124
T_REC_BST	3
T_REC_XST	5
T_REC_TTP	44
T_REC_THO	0
T_REC_SLD	135
T_REC_ALL	605
T_NUM_TAP	426
T_NUM_BRK	6
T_NUM_HLD	38
T_NUM_SLD	135
T_NUM_ALL	605
T_JUDGE_TAP	432
T_JUDGE_HLD	80
T_JUDGE_SLD	135
T_JUDGE_ALL	647
TTM_EACHPAIRS	207
TTM_SCR_TAP	213000
TTM_SCR_BRK	15600
TTM_SCR_HLD	38000
TTM_SCR_SLD	202500
TTM_SCR_ALL	469100
TTM_SCR_S	454450
TTM_SCR_SS	468500
TTM_RAT_ACV	10012

