VERSION	0.00.00	1.03.00
FES_MODE	0
BPM_DEF	130.000	130.000	130.000	130.000
MET_DEF	4	4
RESOLUTION	384
CLK_DEF	384
COMPATIBLE_CODE	MA2

BPM	0	0	130.000
MET	0	0	4	4

TAP	4	0	3
HLD	4	0	4	192
HLD	4	192	2	384
TTP	5	0	3	E	0	M1
TTP	5	96	4	E	0	M1
TTP	5	192	5	E	0	M1
HLD	6	0	3	192
TAP	6	0	4
HLD	6	192	5	384
TTP	7	0	5	E	0	M1
TTP	7	96	4	E	0	M1
TTP	7	192	3	E	0	M1
STR	8	0	2
SCR	8	0	2	96	96	5
XTP	8	192	6
TTP	9	0	6	E	0	M1
TTP	9	96	5	E	0	M1
TTP	9	192	2	E	0	M1
TTP	9	288	3	E	0	M1
TAP	10	0	5
TAP	10	96	4
TAP	10	96	6
TAP	10	192	2
TAP	10	288	1
TAP	10	288	3
STR	11	0	2
SV_	11	0	2	96	96	7
STR	11	0	4
SV_	11	0	4	96	96	7
STR	11	288	0
SCR	11	288	0	96	120	5
HLD	12	0	7	192
TAP	12	192	5
TTP	13	0	7	E	0	M1
TTP	13	96	6	E	0	M1
TTP	13	192	5	E	0	M1
TAP	14	0	2
TAP	14	64	2
TAP	14	96	3
TAP	14	192	5
TAP	14	256	5
TAP	14	288	4
TAP	15	0	2
TAP	15	64	2
TAP	15	96	3
TAP	15	192	1
TAP	15	192	4
TTP	15	256	5	B	0	M1
TTP	15	256	6	E	0	M1
TTP	15	288	2	B	0	M1
TTP	15	288	2	E	0	M1
STR	16	0	7
SCL	16	0	7	96	120	2
HLD	16	96	0	192
TAP	16	288	2
TTP	17	0	1	E	0	M1
TTP	17	96	2	E	0	M1
TTP	17	192	3	E	0	M1
HLD	18	0	2	160
HLD	18	0	4	160
TAP	18	192	3
TAP	18	192	5
TAP	18	288	3
TAP	18	288	5
TAP	19	0	2
TAP	19	0	4
TAP	19	96	1
TAP	19	96	5
TAP	19	192	2
TAP	19	192	6
TAP	19	288	3
TAP	19	288	4
BST	20	0	0
SI_	20	0	0	96	48	4
BST	20	0	1
SV_	20	0	1	96	48	4
STR	20	192	6
SV_	20	192	6	96	48	3
STR	20	192	7
SI_	20	192	7	96	48	3
TAP	21	0	1
TAP	21	0	4
TAP	21	64	2
TAP	21	96	3
TAP	21	160	3
TAP	21	192	1
TAP	21	288	0
TAP	21	288	5
STR	22	0	6
SI_	22	0	6	96	48	2
STR	22	0	7
SI_	22	0	7	96	48	3
XTP	22	192	1
XTP	22	192	3
TAP	22	288	3
TAP	22	288	4
TAP	23	0	4
TAP	23	0	6
XST	23	96	0
SI_	23	96	0	96	48	3
XST	23	96	7
SI_	23	96	7	96	48	4
TAP	23	288	2
TAP	23	288	5
STR	24	0	6
SV_	24	0	6	96	48	3
STR	24	0	7
SI_	24	0	7	96	48	3
STR	24	192	0
SI_	24	192	0	96	48	4
STR	24	192	1
SV_	24	192	1	96	48	4
TAP	25	0	3
TAP	25	0	6
TAP	25	64	5
TAP	25	96	4
TAP	25	160	4
TAP	25	192	6
TAP	25	288	2
TAP	25	288	7
HLD	26	0	0	96
STR	26	0	1
SCR	26	0	1	96	48	4
STR	26	192	6
SCL	26	192	6	96	48	3
HLD	26	192	7	96
XTP	27	0	2
STR	27	96	0
SXL	27	96	0	96	96	0
STR	27	96	7
SXR	27	96	7	96	96	7
BRK	28	0	1
BRK	28	0	6
TTP	28	192	4	E	0	M1
HLD	29	0	4	96
HLD	29	96	5	96
HLD	29	192	6	96
HLD	29	288	7	96
HLD	30	0	3	96
HLD	30	96	2	96
HLD	30	192	1	96
TAP	30	288	0
TAP	31	0	0
TAP	31	0	7
TAP	31	96	1
TAP	31	96	6
BRK	31	192	2
BRK	31	192	5
HLD	31	288	6	96
TTP	32	0	4	B	0	M1
HLD	32	96	1	96
TTP	32	192	3	B	0	M1
HLD	32	288	6	96
HLD	33	0	4	96
HLD	33	96	3	96
TAP	33	192	1
TAP	33	288	4
TAP	33	288	6
TTP	34	0	4	B	0	M1
TTP	34	0	6	B	0	M1
TAP	34	96	1
TAP	34	96	3
TTP	34	192	1	B	0	M1
TTP	34	192	3	B	0	M1
TAP	34	288	4
TAP	34	288	6
TTP	35	0	4	B	0	M1
TTP	35	0	6	B	0	M1
TTP	35	96	1	B	0	M1
TTP	35	96	3	B	0	M1
TTP	35	192	0	E	0	M1
TTP	35	192	4	E	0	M1
HLD	35	288	5	96
TTP	36	0	7	B	0	M1
HLD	36	96	2	96
TTP	36	192	0	B	0	M1
HLD	36	288	5	96
HLD	37	0	7	96
HLD	37	96	0	96
TAP	37	192	2
TAP	37	288	3
TAP	37	288	5
TTP	38	0	3	B	0	M1
TTP	38	0	5	B	0	M1
TAP	38	96	2
TAP	38	96	4
TTP	38	192	2	B	0	M1
TTP	38	192	4	B	0	M1
TAP	38	288	3
HLD	38	288	5	96
HLD	39	0	7	96
HLD	39	96	0	96
TAP	39	192	3
TAP	39	288	2
TAP	39	288	4
STR	40	0	1
SCR	40	0	1	96	192	6
TAP	40	0	5
TTP	41	0	5	E	0	M1
TTP	41	96	6	E	0	M1
TTP	41	192	3	E	0	M1
TTP	41	288	2	E	0	M1
STR	42	0	6
SCL	42	0	6	96	192	1
TAP	43	0	2
STR	43	96	3
SSR	43	96	3	96	288	7
TTP	43	192	0	C	0	M1
BST	45	0	6
SI_	45	0	6	96	48	3
BST	45	0	7
SI_	45	0	7	96	48	3
STR	45	192	0
SI_	45	192	0	96	48	4
STR	45	192	1
SI_	45	192	1	96	48	4
TAP	46	0	3
TAP	46	0	5
TAP	46	64	6
TAP	46	96	7
TAP	46	160	1
TAP	46	192	0
TAP	46	288	2
TAP	46	288	4
STR	47	0	6
SI_	47	0	6	96	48	2
STR	47	0	7
SI_	47	0	7	96	48	3
XTP	47	192	1
XTP	47	192	3
TAP	47	288	0
TAP	47	288	7
TAP	48	0	4
TAP	48	0	6
XST	48	96	3
SI_	48	96	3	96	48	0
XST	48	96	4
SI_	48	96	4	96	48	7
TAP	48	288	1
TAP	48	288	6
STR	49	0	0
SI_	49	0	0	96	48	4
STR	49	0	1
SI_	49	0	1	96	48	4
STR	49	192	6
SI_	49	192	6	96	48	3
STR	49	192	7
SI_	49	192	7	96	48	3
TAP	50	0	2
TAP	50	0	4
TAP	50	64	1
TAP	50	96	0
TAP	50	160	6
TAP	50	192	7
TAP	50	288	3
TAP	50	288	5
HLD	51	0	0	96
STR	51	0	1
SCR	51	0	1	96	48	4
STR	51	192	6
SCL	51	192	6	96	48	3
HLD	51	192	7	96
XTP	52	0	2
STR	52	96	0
SXL	52	96	0	96	96	0
STR	52	96	7
SXR	52	96	7	96	96	7
BST	53	0	6
SI_	53	0	6	96	48	3
BST	53	0	7
SI_	53	0	7	96	48	2
STR	53	192	0
SI_	53	192	0	96	48	5
STR	53	192	1
SI_	53	192	1	96	48	4
TAP	54	0	3
TAP	54	0	6
TAP	54	64	6
TAP	54	96	7
TAP	54	160	1
TAP	54	192	0
TAP	54	288	2
TAP	54	288	4
HLD	55	0	6	96
HLD	55	96	4	96
HLD	55	192	3	96
HLD	55	288	1	96
TAP	56	0	6
XST	56	96	0
SUR	56	96	0	96	72	4
XST	56	96	7
SUL	56	96	7	96	72	3
STR	57	0	0
SI_	57	0	0	96	48	5
STR	57	0	1
SI_	57	0	1	96	48	4
STR	57	192	6
SI_	57	192	6	96	48	3
STR	57	192	7
SI_	57	192	7	96	48	2
TAP	58	0	1
TAP	58	0	4
TAP	58	64	1
TAP	58	96	0
TAP	58	160	6
TAP	58	192	7
TAP	58	288	3
TAP	58	288	5
HLD	59	0	0	96
STR	59	0	1
SUR	59	0	1	96	48	5
STR	59	192	6
SUL	59	192	6	96	48	2
HLD	59	192	7	96
TAP	60	0	1
TAP	60	64	1
TAP	60	96	7
TAP	60	160	7
TAP	60	192	0
TAP	60	288	1
TAP	60	288	6
STR	61	0	2
SCR	61	0	2	96	72	5
STR	61	192	6
SCR	61	192	6	96	72	1
TTP	62	0	4	E	0	M1
TTP	62	96	3	E	0	M1
TTP	62	192	2	E	0	M1
TTP	62	288	1	E	0	M1
TTP	63	0	0	E	0	M1
TTP	63	96	7	E	0	M1
TTP	63	192	6	E	0	M1
TTP	63	288	5	E	0	M1
TTP	64	0	3	B	0	M1
TTP	64	0	4	B	0	M1
TTP	64	96	2	B	0	M1
TTP	64	96	5	B	0	M1
TTP	64	192	1	B	0	M1
TTP	64	192	6	B	0	M1
STR	65	0	0
SCR	65	0	0	96	72	3
STR	65	192	4
SCR	65	192	4	96	72	7
HLD	66	0	1	96
HLD	66	96	3	96
HLD	66	192	4	96
TAP	66	288	6
STR	67	0	7
SCL	67	0	7	96	72	4
STR	67	192	3
SCL	67	192	3	96	72	0
HLD	68	0	6	96
HLD	68	96	4	96
HLD	68	192	3	96
STR	68	288	1
SSR	68	288	1	96	576	5
TTP	69	0	0	C	0	M1

T_REC_TAP	125
T_REC_BRK	4
T_REC_XTP	7
T_REC_HLD	44
T_REC_XHO	0
T_REC_STR	47
T_REC_BST	6
T_REC_XST	6
T_REC_TTP	59
T_REC_THO	0
T_REC_SLD	59
T_REC_ALL	357
T_NUM_TAP	244
T_NUM_BRK	10
T_NUM_HLD	44
T_NUM_SLD	59
T_NUM_ALL	357
T_JUDGE_TAP	254
T_JUDGE_HLD	112
T_JUDGE_SLD	59
T_JUDGE_ALL	425
TTM_EACHPAIRS	71
TTM_SCR_TAP	122000
TTM_SCR_BRK	26000
TTM_SCR_HLD	44000
TTM_SCR_SLD	88500
TTM_SCR_ALL	280500
TTM_SCR_S	271150
TTM_SCR_SS	279500
TTM_RAT_ACV	10035

