VERSION	0.00.00	1.03.00
FES_MODE	0
BPM_DEF	130.000	130.000	130.000	130.000
MET_DEF	4	4
RESOLUTION	384
CLK_DEF	384
COMPATIBLE_CODE	MA2

BPM	0	0	130.000
MET	0	0	4	4

TTP	4	0	4	E	0	L1
TTP	4	192	3	E	0	L1
TTP	5	0	2	E	0	L1
TTP	5	192	1	E	0	L1
TTP	6	0	0	E	0	L1
TTP	6	192	7	E	0	L1
TTP	7	0	6	E	0	L1
TTP	7	192	5	E	0	L1
HLD	8	0	2	192
HLD	8	192	3	192
HLD	9	0	4	192
TAP	9	192	5
HLD	10	0	6	192
HLD	10	192	7	192
HLD	11	0	0	192
TAP	11	192	1
STR	12	0	2
SCL	12	0	2	96	144	7
STR	13	0	6
SCL	13	0	6	96	144	3
TAP	14	0	2
TAP	14	96	2
TAP	14	192	2
TAP	14	192	3
TAP	15	0	4
TAP	15	96	4
TAP	15	192	3
TAP	15	192	4
STR	16	0	5
SCR	16	0	5	96	144	0
STR	17	0	1
SCR	17	0	1	96	144	4
HLD	18	0	5	192
TAP	18	192	4
TAP	18	288	3
HLD	19	0	3	192
TAP	19	192	4
TAP	19	288	5
BRK	20	0	6
TAP	20	96	6
TAP	20	192	6
TAP	20	192	7
TAP	20	288	6
TAP	20	288	7
TAP	21	0	5
TAP	21	96	4
TAP	21	192	3
TAP	21	192	5
TAP	22	0	2
TAP	22	96	3
TAP	22	192	4
TAP	22	288	5
HLD	23	0	6	96
HLD	23	0	7	96
TAP	23	192	0
TAP	23	192	7
TAP	23	288	0
TAP	23	288	7
BRK	24	0	1
TAP	24	96	1
TAP	24	192	0
TAP	24	192	1
TAP	24	288	0
TAP	24	288	1
TAP	25	0	2
TAP	25	96	3
TAP	25	192	2
TAP	25	192	4
TAP	26	0	5
TAP	26	96	5
TAP	26	192	6
TAP	26	288	7
XTP	27	0	0
XTP	27	0	7
TAP	27	192	1
TAP	27	192	6
TAP	27	288	2
TAP	27	288	5
BRK	28	0	3
BRK	28	0	4
STR	29	0	6
SCL	29	0	6	96	144	3
STR	30	0	2
SCL	30	0	2	96	144	7
TAP	31	0	6
TAP	31	96	0
TAP	31	96	7
TAP	31	192	1
TAP	31	192	6
HLD	32	0	5	192
TAP	32	192	4
TAP	33	0	5
TAP	33	96	5
TAP	33	192	4
TAP	33	192	5
HLD	34	0	2	192
TAP	34	192	3
TAP	35	0	2
TAP	35	96	2
TAP	35	192	2
TAP	35	192	3
HLD	36	0	1	192
TAP	36	192	0
TAP	37	0	1
TAP	37	96	1
TAP	37	192	0
TAP	37	192	1
HLD	38	0	6	192
TAP	38	192	7
TAP	39	0	6
TAP	39	96	6
TAP	39	192	7
TAP	39	288	7
TAP	40	0	0
TAP	40	0	7
TTP	40	192	0	E	0	L1
TTP	41	0	1	E	0	L1
TTP	41	192	2	E	0	L1
TTP	42	0	3	E	0	L1
TTP	42	192	4	E	0	L1
TTP	43	0	5	E	0	L1
TTP	43	192	0	C	0	L1
BRK	45	0	1
TAP	45	96	0
TAP	45	96	1
TAP	45	192	1
TAP	45	288	0
TAP	45	288	1
TAP	46	0	2
TAP	46	96	3
TAP	46	192	2
TAP	46	192	4
TAP	47	0	5
TAP	47	96	4
TAP	47	192	3
TAP	47	288	2
HLD	48	0	0	96
HLD	48	0	1	96
TAP	48	192	0
TAP	48	192	7
TAP	48	288	0
TAP	48	288	7
BRK	49	0	6
TAP	49	96	6
TAP	49	96	7
TAP	49	192	6
TAP	49	288	6
TAP	49	288	7
TAP	50	0	5
TAP	50	96	4
TAP	50	192	3
TAP	50	192	5
TAP	51	0	2
TAP	51	96	2
TAP	51	192	1
TAP	51	288	0
XTP	52	0	0
XTP	52	0	7
TAP	52	192	6
TAP	52	288	6
BRK	53	0	5
TAP	53	96	4
TAP	53	96	5
TAP	53	192	5
TAP	53	288	4
TAP	53	288	5
TAP	54	0	6
TAP	54	96	7
TAP	54	192	0
TAP	54	192	6
TAP	55	0	1
TAP	55	96	1
TAP	55	192	0
TAP	55	192	1
TAP	55	288	0
TAP	55	288	1
TAP	56	0	2
TAP	56	96	3
TAP	56	192	2
TAP	56	192	4
TAP	57	0	5
TAP	57	96	5
TAP	57	192	4
TAP	57	192	5
TAP	57	288	4
TAP	57	288	5
TAP	58	0	2
TAP	58	96	2
TAP	58	192	2
TAP	58	192	3
TAP	58	288	2
TAP	58	288	3
TAP	59	0	1
TAP	59	96	1
TAP	59	192	0
TAP	59	288	0
TAP	60	0	7
TAP	60	96	6
TAP	60	192	4
TAP	60	192	5
XST	61	0	3
SUL	61	0	3	96	144	7
XTP	61	0	4
STR	62	0	6
SUL	62	0	6	96	144	2
STR	63	0	1
SUR	63	0	1	96	144	5
TAP	64	0	6
TAP	64	96	6
TAP	64	192	0
TAP	64	192	7
HLD	65	0	6	96
HLD	65	0	7	96
HLD	65	192	0	96
HLD	65	192	1	96
TAP	66	0	7
TAP	66	96	0
TAP	66	96	7
TAP	66	192	1
TAP	66	192	6
HLD	67	0	3	96
HLD	67	0	5	96
HLD	67	192	2	96
HLD	67	192	4	96
TAP	68	0	5
TAP	68	96	4
TAP	68	192	3
TAP	68	288	2
STR	69	0	1
SCR	69	0	1	96	576	0

T_REC_TAP	159
T_REC_BRK	7
T_REC_XTP	5
T_REC_HLD	24
T_REC_XHO	0
T_REC_STR	9
T_REC_BST	0
T_REC_XST	1
T_REC_TTP	15
T_REC_THO	0
T_REC_SLD	10
T_REC_ALL	230
T_NUM_TAP	189
T_NUM_BRK	7
T_NUM_HLD	24
T_NUM_SLD	10
T_NUM_ALL	230
T_JUDGE_TAP	196
T_JUDGE_HLD	72
T_JUDGE_SLD	10
T_JUDGE_ALL	278
TTM_EACHPAIRS	50
TTM_SCR_TAP	94500
TTM_SCR_BRK	18200
TTM_SCR_HLD	24000
TTM_SCR_SLD	15000
TTM_SCR_ALL	151700
TTM_SCR_S	146500
TTM_SCR_SS	151000
TTM_RAT_ACV	10046

