VERSION	0.00.00	1.03.00
FES_MODE	0
BPM_DEF	130.000	130.000	130.000	130.000
MET_DEF	4	4
RESOLUTION	384
CLK_DEF	384
COMPATIBLE_CODE	MA2

BPM	0	0	130.000
MET	0	0	4	4

STR	4	0	0
SI_	4	0	0	96	288	3
STR	6	0	7
SI_	6	0	7	96	288	4
STR	8	0	0
SI_	8	0	0	96	288	4
STR	10	0	7
SI_	10	0	7	96	288	3
TAP	12	0	0
TAP	12	192	0
TAP	13	0	1
TAP	13	192	1
HLD	14	0	2	384
HLD	14	0	3	384
TAP	16	0	4
TAP	16	192	4
TAP	17	0	5
TAP	17	192	5
TAP	18	0	6
TAP	18	192	6
HLD	19	0	0	192
HLD	19	0	7	192
BRK	20	0	7
TAP	20	192	7
TAP	21	0	6
TAP	21	192	6
TAP	21	192	7
TAP	22	0	5
TAP	22	192	5
TAP	23	0	4
TAP	23	192	3
TAP	23	192	4
TAP	24	0	3
TAP	24	192	3
TAP	25	0	2
TAP	25	192	2
TAP	25	192	3
TAP	26	0	1
TAP	26	192	1
TAP	27	0	0
TAP	27	0	7
STR	28	0	0
SI_	28	0	0	96	288	4
STR	30	0	7
SI_	30	0	7	96	288	3
TTP	32	0	3	B	0	L1
TTP	32	192	2	B	0	L1
TTP	33	0	1	B	0	L1
TTP	33	192	0	B	0	L1
TTP	34	0	7	B	0	L1
TTP	34	192	6	B	0	L1
TTP	35	0	5	B	0	L1
TTP	35	192	4	B	0	L1
TTP	36	0	4	E	0	L1
TTP	36	192	5	E	0	L1
TTP	37	0	6	E	0	L1
TTP	37	192	7	E	0	L1
TTP	38	0	0	E	0	L1
TTP	38	192	1	E	0	L1
TTP	39	0	2	E	0	L1
TTP	39	192	3	E	0	L1
THO	40	0	0	384	C	0	L1
THO	42	0	0	576	C	0	L1
XTP	45	0	0
XTP	45	96	0
XTP	45	192	0
TAP	46	0	1
TAP	46	192	1
TAP	47	0	2
TAP	47	96	2
TAP	47	192	2
TAP	48	0	3
TAP	48	0	4
TAP	48	192	3
TAP	48	192	4
TAP	49	0	4
TAP	49	96	4
TAP	49	192	4
TAP	50	0	5
TAP	50	192	5
TAP	51	0	6
TAP	51	96	6
TAP	51	192	6
TAP	52	0	0
TAP	52	0	7
TAP	52	192	0
TAP	52	192	7
TAP	53	0	6
TAP	53	96	6
TAP	53	192	6
TAP	54	0	4
TAP	54	0	5
TAP	54	192	4
TAP	54	192	5
TAP	55	0	3
TAP	55	96	3
TAP	55	192	3
TAP	56	0	2
TAP	56	0	3
TAP	56	192	2
TAP	56	192	3
TAP	57	0	1
TAP	57	96	1
TAP	57	192	1
TAP	58	0	0
TAP	58	0	7
TAP	58	192	0
TAP	58	192	7
TAP	59	0	1
TAP	59	96	1
TAP	59	192	1
TAP	60	0	0
TAP	60	0	1
TAP	60	192	0
TAP	60	192	1
STR	61	0	7
SI_	61	0	7	96	288	2
STR	63	0	1
SI_	63	0	1	96	288	4
TAP	65	0	5
TAP	65	96	5
TAP	65	192	5
TAP	66	0	6
TAP	66	96	6
TAP	66	192	6
TAP	67	0	7
TAP	67	96	7
TAP	67	192	0
TAP	67	192	7
TAP	68	0	0
TAP	68	96	0
HLD	68	192	0	192
HLD	68	192	7	192

T_REC_TAP	89
T_REC_BRK	1
T_REC_XTP	3
T_REC_HLD	6
T_REC_XHO	0
T_REC_STR	8
T_REC_BST	0
T_REC_XST	0
T_REC_TTP	16
T_REC_THO	2
T_REC_SLD	8
T_REC_ALL	133
T_NUM_TAP	116
T_NUM_BRK	1
T_NUM_HLD	8
T_NUM_SLD	8
T_NUM_ALL	133
T_JUDGE_TAP	117
T_JUDGE_HLD	52
T_JUDGE_SLD	8
T_JUDGE_ALL	177
TTM_EACHPAIRS	20
TTM_SCR_TAP	58000
TTM_SCR_BRK	2600
TTM_SCR_HLD	8000
TTM_SCR_SLD	12000
TTM_SCR_ALL	80600
TTM_SCR_S	78100
TTM_SCR_SS	80500
TTM_RAT_ACV	10012

