VERSION	0.00.00	1.03.00
FES_MODE	0
BPM_DEF	 90.000	 90.000	 90.000	 90.000
MET_DEF	4	4
RESOLUTION	384
CLK_DEF	384
COMPATIBLE_CODE	MA2

BPM	0	0	 90.000
MET	0	0	4	4

TTP	1	354	0	E	0	M1
TTP	1	360	0	B	0	M1
TTP	1	360	7	B	0	M1
TTP	1	366	1	B	0	M1
TTP	1	366	6	B	0	M1
TTP	1	372	2	B	0	M1
TTP	1	372	5	B	0	M1
TTP	1	378	3	B	0	M1
TTP	1	378	4	B	0	M1
TTP	2	0	4	E	0	M1
TTP	2	354	0	E	0	M1
TTP	2	360	1	E	0	M1
TTP	2	360	7	E	0	M1
TTP	2	366	2	E	0	M1
TTP	2	366	6	E	0	M1
TTP	2	372	3	E	0	M1
TTP	2	372	5	E	0	M1
TTP	2	378	4	E	0	M1
XTP	3	0	3
XTP	3	0	4
HLD	3	144	3	48
TTP	3	336	1	B	0	M1
TTP	3	336	1	E	0	M1
TAP	3	360	3
TAP	4	0	3
TTP	4	144	5	B	0	M1
TTP	4	144	6	E	0	M1
TAP	4	168	3
TAP	4	216	3
TAP	4	264	3
HLD	4	288	3	48
TTP	4	336	1	B	0	M1
TTP	4	336	1	E	0	M1
STR	5	0	3
SCL	5	0	3	96	288	5
TAP	5	96	4
STR	5	288	5
SXR	5	288	5	96	384	2
TAP	6	96	1
STR	6	288	2
SCL	6	288	2	96	192	6
STR	7	96	6
SCL	7	96	6	96	192	2
STR	7	288	2
SSL	7	288	2	96	192	6
STR	8	96	6
SCR	8	96	6	96	288	5
TAP	8	192	3
TAP	8	216	3
TAP	8	240	3
TAP	8	288	4
TAP	8	336	4
STR	9	0	5
SXR	9	0	5	96	96	3
STR	9	96	3
SCR	9	96	3	96	288	1
HLD	9	192	5	96
STR	10	0	1
SXR	10	0	1	96	96	7
STR	10	96	7
SCR	10	96	7	96	288	5
HLD	10	192	1	96
STR	11	0	5
SUR	11	0	5	96	192	2
TAP	11	96	3
STR	11	192	2
SCL	11	192	2	96	192	5
TAP	11	288	4
STR	12	0	5
SUL	12	0	5	96	96	1
STR	12	96	1
SCL	12	96	1	96	288	2
TAP	12	192	4
TAP	12	216	4
TAP	12	240	4
TAP	12	288	3
TAP	12	336	3
STR	13	0	2
SXL	13	0	2	96	288	0
TTP	13	96	0	E	0	M1
TTP	13	96	7	B	0	M1
TAP	13	192	6
TAP	13	240	7
STR	13	288	0
SCL	13	288	0	96	96	6
STR	14	0	6
SXL	14	0	6	96	288	4
TTP	14	96	3	B	0	M1
TTP	14	96	4	E	0	M1
TAP	14	192	2
TAP	14	240	3
STR	14	288	4
SCL	14	288	4	96	96	2
STR	15	0	2
SV_	15	0	2	96	96	5
STR	15	96	5
SXR	15	96	5	96	192	2
TTP	15	192	0	B	0	M1
TTP	15	192	1	B	0	M1
TTP	15	240	6	B	0	M1
TTP	15	240	7	B	0	M1
STR	15	288	2
SCL	15	288	2	96	96	7
STR	16	0	7
SCL	16	0	7	96	96	4
STR	16	96	4
SCR	16	96	4	96	288	3
TAP	16	192	3
TAP	16	216	3
TAP	16	240	3
TAP	16	288	4
TAP	16	336	4
STR	17	0	3
SXR	17	0	3	96	288	7
TAP	17	48	4
STR	17	96	4
SI_	17	96	4	96	48	6
STR	17	288	7
SCL	17	288	7	96	96	4
STR	18	0	4
SXL	18	0	4	96	288	0
TAP	18	48	3
STR	18	96	3
SI_	18	96	3	96	48	1
STR	18	288	0
SCR	18	288	0	96	96	3
STR	19	0	3
SUR	19	0	3	96	192	4
TAP	19	96	6
STR	19	192	4
SUL	19	192	4	96	192	3
TAP	19	288	1
THO	20	0	0	96	C	0	M1
TAP	20	192	1
TAP	20	192	6
TAP	20	216	1
TAP	20	216	6
TAP	20	240	1
TAP	20	240	6
HLD	20	288	7	12
HLD	20	336	0	12
TAP	21	0	2
BST	21	0	6
SI_	21	0	6	96	24	0
TAP	21	48	1
TAP	21	48	5
TAP	21	96	3
TAP	21	144	2
TAP	21	144	4
TAP	21	192	1
STR	21	192	5
SI_	21	192	5	96	24	3
STR	21	240	3
SLR	21	240	3	96	36	7
TAP	21	288	5
HLD	21	336	0	72
TAP	22	24	7
TAP	22	48	0
TAP	22	72	7
STR	22	96	1
SI_	22	96	1	96	24	3
TAP	22	96	6
STR	22	144	4
SI_	22	144	4	96	24	0
TAP	22	192	1
TAP	22	240	4
TAP	22	288	1
TAP	22	312	0
TAP	22	336	2
HLD	22	336	7	72
TAP	23	24	0
TAP	23	48	7
TAP	23	72	0
TAP	23	96	1
STR	23	96	6
SI_	23	96	6	96	24	4
STR	23	144	2
SI_	23	144	2	96	24	0
STR	23	192	6
SI_	23	192	6	96	24	2
TAP	23	240	2
TAP	23	288	6
TAP	23	336	0
TAP	23	336	4
TAP	23	360	0
TAP	23	360	4
TAP	24	24	6
TAP	24	48	7
TAP	24	72	6
STR	24	96	0
SI_	24	96	0	96	24	4
TAP	24	96	5
STR	24	144	7
SI_	24	144	7	96	24	5
STR	24	192	0
SI_	24	192	0	96	24	2
STR	24	240	7
SI_	24	240	7	96	24	3
TAP	24	288	0
TAP	24	336	7
STR	25	0	1
SCL	25	0	1	96	24	7
TAP	25	0	5
TAP	25	48	2
TAP	25	96	4
TAP	25	120	4
TAP	25	168	2
TAP	25	168	6
STR	25	192	2
SCR	25	192	2	96	24	4
TAP	25	192	6
STR	25	240	4
SUL	25	240	4	96	36	0
TAP	25	240	5
TAP	25	288	1
HLD	25	336	7	72
TAP	26	24	0
TAP	26	48	7
TAP	26	72	0
TAP	26	96	1
STR	26	96	6
SCL	26	96	6	96	24	4
STR	26	144	3
SUR	26	144	3	96	24	7
TAP	26	144	4
TAP	26	192	1
TAP	26	240	3
TAP	26	264	6
TAP	26	288	6
HLD	26	336	0	72
TAP	26	336	4
TAP	27	24	7
TAP	27	48	0
TAP	27	72	7
STR	27	96	1
SCR	27	96	1	96	24	4
TAP	27	96	6
TAP	27	144	2
STR	27	144	5
SCR	27	144	5	96	24	0
STR	27	192	1
SXL	27	192	1	96	72	5
TAP	27	336	7
TAP	27	360	7
TAP	28	24	6
TAP	28	48	7
TAP	28	72	6
STR	28	96	0
SUR	28	96	0	96	24	4
TAP	28	96	5
TAP	28	144	2
STR	28	144	7
SCL	28	144	7	96	24	4
STR	28	192	0
SCR	28	192	0	96	24	3
STR	28	240	7
SUL	28	240	7	96	24	3
TAP	29	0	2
TAP	29	24	3
TAP	29	48	4
TAP	29	72	5
STR	29	96	4
SI_	29	96	4	96	24	0
HLD	29	96	6	24
HLD	29	144	1	24
STR	29	144	3
SI_	29	144	3	96	24	7
TAP	29	192	4
TAP	29	192	6
TAP	29	240	1
TAP	29	240	3
TAP	29	288	0
TAP	29	312	0
STR	29	336	1
SCL	29	336	1	96	24	7
TAP	29	336	7
TAP	30	24	3
STR	30	48	1
SI_	30	48	1	96	24	4
TAP	30	96	4
TAP	30	120	4
STR	30	144	1
SCL	30	144	1	96	24	7
TAP	30	192	5
TAP	30	216	5
STR	30	240	1
SI_	30	240	1	96	24	5
TAP	30	264	6
TAP	30	288	6
TAP	30	336	1
TAP	30	336	5
TAP	31	24	3
TAP	31	24	7
TAP	31	48	0
TAP	31	48	4
STR	31	96	7
SV_	31	96	7	96	24	4
TAP	31	120	0
STR	31	144	3
SV_	31	144	3	96	24	0
TAP	31	168	4
TAP	31	192	7
TAP	31	240	3
TAP	31	288	7
TAP	31	312	7
TAP	31	336	0
STR	31	336	6
SI_	31	336	6	96	24	0
TAP	32	24	4
STR	32	48	6
SCL	32	48	6	96	24	3
HLD	32	96	3	24
STR	32	144	6
SI_	32	144	6	96	24	0
HLD	32	192	2	24
STR	32	240	6
SUL	32	240	6	96	24	2
TAP	32	264	1
HLD	32	288	1	48
TAP	33	24	0
TAP	33	48	1
TAP	33	72	2
HLD	33	96	1	24
STR	33	96	3
SI_	33	96	3	96	24	5
STR	33	144	4
SI_	33	144	4	96	24	2
HLD	33	144	6	24
TAP	33	192	1
TAP	33	240	6
TAP	33	288	7
TAP	33	312	7
TAP	33	336	0
STR	33	336	6
SI_	33	336	6	96	24	0
TAP	34	0	1
TAP	34	0	5
STR	34	48	2
SCR	34	48	2	96	24	4
TAP	34	48	6
TAP	34	96	1
TAP	34	144	2
STR	34	144	6
SCR	34	144	6	96	24	0
TAP	34	192	5
STR	34	240	2
SI_	34	240	2	96	24	6
TAP	34	240	6
TAP	34	288	1
TAP	34	336	2
TAP	34	336	6
HLD	35	24	1	48
HLD	35	24	5	48
STR	35	96	7
SI_	35	96	7	96	24	3
TAP	35	120	6
STR	35	144	0
SI_	35	144	0	96	24	4
TAP	35	168	1
TTP	35	192	7	B	0	M1
TTP	35	240	0	B	0	M1
TAP	35	288	3
TAP	35	288	7
TAP	35	312	2
TAP	35	312	6
STR	35	336	1
SCL	35	336	1	96	24	7
TAP	35	336	5
TAP	35	360	0
TAP	35	360	4
STR	36	48	5
SCL	36	48	5	96	24	3
TAP	36	96	2
TAP	36	96	6
STR	36	144	1
SI_	36	144	1	96	24	7
TAP	36	192	2
TAP	36	192	6
STR	36	240	5
SI_	36	240	5	96	24	1
TAP	36	288	2
TAP	36	288	6
TTP	36	336	0	C	0	M1
TAP	37	0	3
TAP	37	0	7
TAP	37	48	2
HLD	37	48	4	48
TAP	37	96	6
TAP	37	120	4
TAP	37	144	2
TAP	37	168	4
STR	37	192	6
SI_	37	192	6	96	24	2
TAP	37	216	4
STR	37	240	2
SI_	37	240	2	96	24	6
TAP	37	264	4
TAP	38	0	0
TAP	38	0	4
HLD	38	48	3	48
TAP	38	48	5
TAP	38	96	1
TAP	38	120	3
TAP	38	144	5
TAP	38	168	3
STR	38	192	1
SUR	38	192	1	96	24	6
TAP	38	216	3
TAP	38	240	5
TAP	38	264	3
TTP	38	354	0	E	0	M1
TTP	38	360	0	B	0	M1
TTP	38	360	7	B	0	M1
TTP	38	366	1	B	0	M1
TTP	38	366	6	B	0	M1
TTP	38	372	2	B	0	M1
TTP	38	372	5	B	0	M1
TTP	38	378	3	B	0	M1
TTP	38	378	4	B	0	M1
TTP	39	0	4	E	0	M1
TAP	39	96	0
TAP	39	96	7
TAP	39	120	6
TAP	39	144	5
TAP	39	168	4
TAP	39	192	3
STR	39	192	7
SI_	39	192	7	96	24	3
STR	39	240	2
SV_	39	240	2	96	24	1
STR	39	240	4
SV_	39	240	4	96	24	5
TAP	39	288	7
TAP	40	0	7
TAP	40	48	3
TAP	40	48	7
TAP	40	96	0
TAP	40	96	4
TAP	40	120	1
TAP	40	144	2
TAP	40	168	3
TAP	40	192	0
STR	40	192	4
SI_	40	192	4	96	24	0
STR	40	240	1
SV_	40	240	1	96	24	2
STR	40	240	7
SV_	40	240	7	96	24	6
TAP	40	288	4
TAP	41	0	4
TAP	41	48	3
TAP	41	48	5
HLD	41	96	2	120
HLD	41	96	6	24
HLD	41	144	3	24
HLD	41	192	5	72
HLD	41	240	4	24
TAP	41	288	3
TAP	41	288	6
TAP	41	336	1
TAP	41	336	4
TAP	42	0	3
TAP	42	48	2
TAP	42	48	4
HLD	42	96	1	24
HLD	42	96	5	24
HLD	42	144	2	24
HLD	42	144	6	24
STR	42	192	3
SI_	42	192	3	96	24	7
STR	42	192	7
SI_	42	192	7	96	24	3
STR	42	240	0
SI_	42	240	0	96	24	4
STR	42	240	4
SI_	42	240	4	96	24	0
STR	42	288	3
SCL	42	288	3	96	384	1
STR	42	288	7
SCL	42	288	7	96	384	5
TTP	45	0	4	E	0	M1

T_REC_TAP	214
T_REC_BRK	0
T_REC_XTP	2
T_REC_HLD	30
T_REC_XHO	0
T_REC_STR	93
T_REC_BST	1
T_REC_XST	0
T_REC_TTP	46
T_REC_THO	1
T_REC_SLD	94
T_REC_ALL	481
T_NUM_TAP	355
T_NUM_BRK	1
T_NUM_HLD	31
T_NUM_SLD	94
T_NUM_ALL	481
T_JUDGE_TAP	356
T_JUDGE_HLD	61
T_JUDGE_SLD	94
T_JUDGE_ALL	511
TTM_EACHPAIRS	71
TTM_SCR_TAP	177500
TTM_SCR_BRK	2600
TTM_SCR_HLD	31000
TTM_SCR_SLD	141000
TTM_SCR_ALL	352100
TTM_SCR_S	341450
TTM_SCR_SS	352000
TTM_RAT_ACV	10002

