VERSION	0.00.00	1.03.00
FES_MODE	0
BPM_DEF	 90.000	 90.000	 90.000	 90.000
MET_DEF	4	4
RESOLUTION	384
CLK_DEF	384
COMPATIBLE_CODE	MA2

BPM	0	0	 90.000
MET	0	0	4	4

HLD	1	0	4	96
HLD	1	192	4	96
HLD	2	0	4	96
HLD	2	192	4	96
XTP	2	336	3
XHO	3	0	3	96
HLD	3	192	3	96
HLD	4	0	3	96
HLD	4	192	3	96
HLD	5	0	3	288
HLD	5	0	4	96
TAP	5	144	5
HLD	5	192	5	288
TAP	5	336	4
HLD	6	0	4	480
TAP	6	192	7
TAP	6	240	6
TAP	6	288	5
HLD	7	0	5	288
TAP	7	144	3
HLD	7	192	3	288
TAP	7	336	6
HLD	8	0	6	336
TAP	8	192	4
TAP	8	240	3
HLD	8	288	2	48
HLD	9	0	3	96
HLD	9	0	4	288
TAP	9	144	2
HLD	9	192	2	288
TAP	9	336	3
HLD	10	0	3	480
TAP	10	192	0
TAP	10	240	1
TAP	10	288	2
HLD	11	0	2	288
TAP	11	144	4
HLD	11	192	4	288
TAP	11	336	1
HLD	12	0	1	336
TAP	12	192	3
TAP	12	240	4
HLD	12	288	5	48
HLD	13	0	3	264
HLD	13	0	4	72
TAP	13	96	4
TAP	13	168	5
HLD	13	192	5	264
TAP	13	288	3
TAP	13	360	4
HLD	14	0	4	456
TAP	14	96	5
TAP	14	168	7
TAP	14	216	6
TAP	14	264	5
TAP	14	288	5
TAP	14	360	5
HLD	15	0	5	264
TAP	15	96	4
TAP	15	168	3
HLD	15	192	3	264
TAP	15	288	5
TAP	15	360	6
HLD	16	0	6	336
TAP	16	96	3
TAP	16	168	4
TAP	16	216	3
TAP	16	264	2
HLD	16	288	2	48
HLD	17	0	3	72
HLD	17	0	4	264
TAP	17	96	3
TAP	17	168	2
HLD	17	192	2	264
TAP	17	288	4
TAP	17	360	3
HLD	18	0	3	456
TAP	18	96	2
TAP	18	168	0
TAP	18	216	1
TAP	18	264	2
TAP	18	288	2
TAP	18	360	2
HLD	19	0	2	264
TAP	19	96	3
TAP	19	168	4
HLD	19	192	4	264
TAP	19	288	2
TAP	19	360	1
HLD	20	0	1	336
TAP	20	96	4
TAP	20	168	3
TAP	20	216	4
TAP	20	264	5
HLD	20	288	5	48
HLD	21	0	0	264
HLD	21	0	7	72
TAP	21	96	7
TAP	21	144	4
TAP	21	168	5
HLD	21	192	6	264
TAP	21	288	0
TAP	21	336	1
TAP	21	360	0
HLD	22	0	7	456
TAP	22	96	6
TAP	22	144	4
TAP	22	168	5
TAP	22	192	6
TAP	22	240	6
TAP	22	264	5
TAP	22	288	4
TAP	22	336	4
TAP	22	360	5
HLD	23	0	6	264
TAP	23	96	7
TAP	23	144	2
TAP	23	168	1
HLD	23	192	0	264
TAP	23	288	6
TAP	23	336	7
TAP	23	360	6
HLD	24	0	5	336
TAP	24	96	0
TAP	24	144	7
TAP	24	168	0
TAP	24	192	1
TAP	24	240	1
TAP	24	264	0
TAP	24	288	7
TAP	24	336	7
TAP	24	360	0
HLD	25	0	0	72
HLD	25	0	7	264
TAP	25	96	0
TAP	25	144	3
TAP	25	168	2
HLD	25	192	1	264
TAP	25	288	7
TAP	25	336	6
TAP	25	360	7
HLD	26	0	0	456
TAP	26	96	1
TAP	26	144	3
TAP	26	168	2
TAP	26	192	1
TAP	26	240	1
TAP	26	264	2
TAP	26	288	3
TAP	26	336	3
TAP	26	360	2
HLD	27	0	1	264
TAP	27	96	0
TAP	27	144	5
TAP	27	168	6
HLD	27	192	7	264
TAP	27	288	1
TAP	27	336	0
TAP	27	360	1
HLD	28	0	2	336
TAP	28	96	7
TAP	28	144	0
TAP	28	168	7
TAP	28	192	6
TAP	28	240	6
TAP	28	264	7
TAP	28	288	0
TAP	28	336	0
TAP	28	360	7
TAP	29	0	0
HLD	29	0	7	72
HLD	29	48	0	216
TAP	29	96	7
TAP	29	144	7
TAP	29	168	6
TAP	29	192	5
HLD	29	240	5	216
TAP	29	288	0
TAP	29	336	2
TAP	29	360	3
TAP	30	0	4
HLD	30	48	7	408
TAP	30	96	5
TAP	30	120	4
TAP	30	144	3
TAP	30	192	3
TAP	30	216	4
TAP	30	240	5
TAP	30	288	5
TAP	30	336	5
TAP	30	360	4
TAP	31	0	3
HLD	31	48	6	216
TAP	31	96	7
TAP	31	144	4
TAP	31	168	3
TAP	31	192	2
HLD	31	240	0	216
TAP	31	288	6
TAP	31	336	6
TAP	31	360	5
TAP	32	0	4
HLD	32	48	5	288
TAP	32	96	0
TAP	32	120	1
TAP	32	144	2
TAP	32	192	2
TAP	32	216	1
TAP	32	240	0
TAP	32	288	2
TAP	32	336	2
TAP	32	360	1
HLD	33	0	0	72
TAP	33	0	7
HLD	33	48	7	216
TAP	33	96	0
TAP	33	144	0
TAP	33	168	1
TAP	33	192	2
HLD	33	240	2	216
TAP	33	288	7
TAP	33	336	5
TAP	33	360	4
TAP	34	0	3
HLD	34	48	0	408
TAP	34	96	2
TAP	34	120	3
TAP	34	144	4
TAP	34	192	4
TAP	34	216	3
TAP	34	240	2
TAP	34	288	2
TAP	34	336	2
TAP	34	360	3
TAP	35	0	4
HLD	35	48	1	216
TAP	35	96	0
TAP	35	144	3
TAP	35	168	4
TAP	35	192	5
HLD	35	240	7	216
TAP	35	288	1
TAP	35	336	1
TAP	35	360	2
TAP	36	0	3
HLD	36	48	2	288
TAP	36	96	7
TAP	36	120	6
TAP	36	144	5
TAP	36	192	5
TAP	36	216	6
TAP	36	240	7
TAP	36	288	5
TAP	36	336	5
TAP	37	0	3
TAP	37	0	4
HLD	37	48	4	48
TAP	37	96	3
TAP	37	144	4
TAP	37	168	4
TAP	37	192	3
TAP	37	216	3
HLD	37	240	4	96
HLD	37	288	3	48
TAP	38	0	2
HLD	38	0	5	48
HLD	38	48	2	48
TAP	38	96	5
TAP	38	144	2
TAP	38	168	2
TAP	38	192	5
TAP	38	216	5
TAP	38	240	2
TAP	38	264	2
HLD	38	288	5	48
TAP	38	336	2
HLD	39	0	1	48
TAP	39	0	6
TAP	39	48	6
TAP	39	96	1
TAP	39	144	1
HLD	39	168	1	48
TAP	39	192	6
HLD	39	216	6	48
TAP	39	240	1
HLD	39	264	1	72
TAP	39	288	6
TAP	39	336	6
TAP	40	0	0
TAP	40	0	7
HLD	40	48	7	48
HLD	40	96	0	48
TAP	40	144	7
HLD	40	168	7	48
TAP	40	192	0
HLD	40	216	0	48
TAP	40	240	7
HLD	40	264	7	24
TAP	40	288	0
TAP	40	336	0
TAP	40	336	7
TAP	41	0	1
TAP	41	0	6
HLD	41	48	1	48
TAP	41	48	6
TAP	41	96	6
TAP	41	120	6
TAP	41	144	1
TAP	41	144	6
TAP	41	192	2
HLD	41	216	2	72
TAP	41	240	5
TAP	41	264	5
TAP	41	288	5
TAP	41	336	2
TAP	41	336	5
TAP	42	0	3
HLD	42	0	4	48
HLD	42	48	3	48
TAP	42	96	4
TAP	42	120	4
TAP	42	144	3
TAP	42	144	4
TAP	42	168	3
TAP	42	192	3
STR	42	192	4
SI_	42	192	4	96	48	0
TAP	42	216	4
BST	42	240	3
SI_	42	240	3	96	48	7
BRK	42	240	4
TTP	43	96	5	E	0	M1
TTP	43	168	3	E	0	M1
TTP	43	288	0	C	0	M1
TTP	44	24	7	B	0	M1
TTP	44	72	0	B	0	M1

T_REC_TAP	238
T_REC_BRK	1
T_REC_XTP	1
T_REC_HLD	86
T_REC_XHO	1
T_REC_STR	1
T_REC_BST	1
T_REC_XST	0
T_REC_TTP	5
T_REC_THO	0
T_REC_SLD	2
T_REC_ALL	336
T_NUM_TAP	245
T_NUM_BRK	2
T_NUM_HLD	87
T_NUM_SLD	2
T_NUM_ALL	336
T_JUDGE_TAP	247
T_JUDGE_HLD	709
T_JUDGE_SLD	2
T_JUDGE_ALL	958
TTM_EACHPAIRS	21
TTM_SCR_TAP	122500
TTM_SCR_BRK	5200
TTM_SCR_HLD	87000
TTM_SCR_SLD	3000
TTM_SCR_ALL	217700
TTM_SCR_S	211000
TTM_SCR_SS	217500
TTM_RAT_ACV	10009

