VERSION	0.00.00	1.03.00
FES_MODE	0
BPM_DEF	 90.000	 90.000	 90.000	 90.000
MET_DEF	4	4
RESOLUTION	384
CLK_DEF	384
COMPATIBLE_CODE	MA2

BPM	0	0	 90.000
MET	0	0	4	4

STR	2	0	3
SXR	2	0	3	96	192	0
STR	3	0	7
SXR	3	0	7	96	192	4
TAP	4	0	2
TAP	4	96	2
TAP	4	192	3
TAP	4	192	4
HLD	5	0	5	96
TAP	5	96	4
TAP	5	192	5
TAP	5	240	5
TAP	5	288	4
HLD	6	0	2	96
TAP	6	96	3
TAP	6	192	2
TAP	6	240	2
TAP	6	288	3
HLD	7	0	5	96
TAP	7	96	4
TAP	7	192	5
TAP	7	240	5
TAP	7	288	4
HLD	8	0	2	48
HLD	8	0	3	48
TAP	8	96	2
TAP	8	96	3
TAP	8	192	3
TAP	8	192	4
TAP	8	240	3
TAP	8	240	4
TAP	8	288	2
TAP	8	288	5
HLD	9	0	1	96
TAP	9	96	0
TAP	9	192	1
TAP	9	240	1
TAP	9	288	0
HLD	10	0	6	96
TAP	10	96	7
TAP	10	192	6
TAP	10	240	6
TAP	10	288	7
HLD	11	0	1	96
TAP	11	96	0
TAP	11	192	1
TAP	11	240	1
TAP	11	288	0
HLD	12	0	6	48
HLD	12	0	7	48
TAP	12	96	6
TAP	12	96	7
TAP	12	192	0
TAP	12	192	7
TAP	12	240	0
TAP	12	240	7
TAP	12	288	1
TAP	12	288	6
TAP	13	0	5
TAP	13	48	5
TAP	13	96	4
TAP	13	96	5
TAP	13	192	2
TAP	13	240	2
TAP	13	288	2
TAP	13	288	3
TAP	14	0	5
TAP	14	48	5
TAP	14	96	4
TAP	14	144	4
TAP	14	192	3
TAP	14	240	3
TAP	14	288	2
TAP	14	288	4
TAP	15	0	1
TAP	15	48	1
TAP	15	96	0
TAP	15	96	1
TAP	15	192	6
TAP	15	240	6
TAP	15	288	6
TAP	15	288	7
TAP	16	0	1
TAP	16	48	1
TAP	16	96	0
TAP	16	144	0
TAP	16	192	7
TAP	16	240	7
TAP	16	288	0
TAP	16	288	7
TAP	17	0	6
TAP	17	48	6
TAP	17	96	7
TAP	17	144	7
TAP	17	192	0
TAP	17	240	0
TAP	17	288	1
TAP	17	288	7
TAP	18	0	2
TAP	18	48	2
TAP	18	96	3
TAP	18	144	3
TAP	18	192	4
TAP	18	240	4
TAP	18	288	3
TAP	18	288	4
TAP	19	0	5
TAP	19	48	5
TAP	19	96	4
TAP	19	144	4
TAP	19	192	3
TAP	19	240	3
TAP	19	288	2
TAP	19	288	4
TAP	20	0	1
TAP	20	48	1
TAP	20	96	0
TAP	20	144	0
TAP	20	192	7
TAP	20	240	7
TAP	20	288	0
TAP	20	288	7
TTP	21	0	6	B	0	L1
TTP	21	0	7	E	0	L1
TTP	21	96	4	B	0	L1
TTP	21	96	5	E	0	L1
TTP	21	192	1	B	0	L1
TTP	21	240	2	B	0	L1
TTP	21	288	3	E	0	L1
TTP	22	0	4	B	0	L1
TTP	22	0	5	E	0	L1
TTP	22	96	6	B	0	L1
TTP	22	96	7	E	0	L1
TTP	22	192	3	E	0	L1
TTP	22	240	2	B	0	L1
TTP	22	288	1	B	0	L1
TTP	23	0	6	B	0	L1
TTP	23	0	7	E	0	L1
TTP	23	96	4	B	0	L1
TTP	23	96	5	E	0	L1
TTP	23	192	1	B	0	L1
TTP	23	240	2	B	0	L1
TTP	23	288	3	E	0	L1
TTP	24	0	4	B	0	L1
TTP	24	0	5	E	0	L1
TTP	24	96	6	B	0	L1
TTP	24	96	7	E	0	L1
TTP	24	192	3	E	0	L1
TTP	24	240	2	B	0	L1
TTP	24	288	1	B	0	L1
STR	25	0	5
SI_	25	0	5	96	96	0
TAP	25	192	1
TAP	25	240	1
TAP	25	288	0
STR	26	0	2
SI_	26	0	2	96	96	7
TAP	26	192	6
TAP	26	240	6
TAP	26	288	7
STR	27	0	5
SCR	27	0	5	96	96	0
TAP	27	192	1
TAP	27	240	1
TAP	27	288	0
TAP	28	0	2
TAP	28	96	3
TAP	28	192	3
TAP	28	192	4
TAP	28	240	3
TAP	28	240	4
TAP	28	288	2
TAP	28	288	5
TAP	29	0	6
TAP	29	48	6
TAP	29	96	6
TAP	29	96	7
TAP	29	144	6
TAP	29	144	7
TAP	29	192	1
TAP	29	240	1
TAP	29	288	0
TAP	29	288	1
TAP	29	336	0
TAP	29	336	1
TAP	30	0	2
TAP	30	48	2
TAP	30	96	3
TAP	30	144	3
TAP	30	192	4
TAP	30	240	4
TAP	30	288	3
TAP	30	288	5
TAP	31	0	2
TAP	31	48	2
TAP	31	96	2
TAP	31	96	3
TAP	31	144	2
TAP	31	144	3
TAP	31	192	5
TAP	31	240	5
TAP	31	288	4
TAP	31	288	5
TAP	31	336	4
TAP	31	336	5
TAP	32	0	6
TAP	32	48	6
TAP	32	96	7
TAP	32	144	7
TAP	32	192	0
TAP	32	240	0
TAP	32	288	0
TAP	32	288	7
TAP	33	0	1
TAP	33	48	1
TAP	33	96	0
TAP	33	96	1
TAP	33	144	0
TAP	33	144	1
TAP	33	192	6
TAP	33	240	6
TAP	33	288	6
TAP	33	288	7
TAP	33	336	6
TAP	33	336	7
TAP	34	0	5
TAP	34	48	5
TAP	34	96	4
TAP	34	144	4
TAP	34	192	3
TAP	34	240	3
TAP	34	288	2
TAP	34	288	4
TAP	35	0	5
TAP	35	48	5
TAP	35	96	4
TAP	35	96	5
TAP	35	144	4
TAP	35	144	5
TAP	35	192	2
TAP	35	240	2
TAP	35	288	2
TAP	35	288	3
TAP	35	336	2
TAP	35	336	3
TAP	36	0	1
TAP	36	48	1
TAP	36	96	0
TAP	36	144	0
TAP	36	192	7
TAP	36	240	7
TAP	36	288	0
TAP	36	288	7
BST	37	0	1
SLR	37	0	1	96	192	0
BST	37	0	6
SLL	37	0	6	96	192	7
STR	38	0	1
SLR	38	0	1	96	192	0
STR	38	0	6
SLL	38	0	6	96	192	7
STR	39	0	7
SXR	39	0	7	96	192	4
STR	40	0	3
SXR	40	0	3	96	192	0
STR	41	0	7
SCL	41	0	7	96	192	1
STR	42	0	0
SCR	42	0	0	96	192	6

T_REC_TAP	205
T_REC_BRK	0
T_REC_XTP	0
T_REC_HLD	10
T_REC_XHO	0
T_REC_STR	11
T_REC_BST	2
T_REC_XST	0
T_REC_TTP	28
T_REC_THO	0
T_REC_SLD	13
T_REC_ALL	269
T_NUM_TAP	244
T_NUM_BRK	2
T_NUM_HLD	10
T_NUM_SLD	13
T_NUM_ALL	269
T_JUDGE_TAP	246
T_JUDGE_HLD	32
T_JUDGE_SLD	13
T_JUDGE_ALL	291
TTM_EACHPAIRS	46
TTM_SCR_TAP	122000
TTM_SCR_BRK	5200
TTM_SCR_HLD	10000
TTM_SCR_SLD	19500
TTM_SCR_ALL	156700
TTM_SCR_S	151850
TTM_SCR_SS	156500
TTM_RAT_ACV	10012

