VERSION	0.00.00	1.03.00
FES_MODE	0
BPM_DEF	 95.000	 95.000	 95.000	 95.000
MET_DEF	4	4
RESOLUTION	384
CLK_DEF	384
COMPATIBLE_CODE	MA2

BPM	0	0	 95.000
MET	0	0	4	4

HLD	1	0	5	192
TTP	1	128	3	B	0	M1
TTP	1	144	4	E	0	M1
HLD	1	192	2	192
TTP	1	320	4	B	0	M1
TTP	1	336	4	E	0	M1
HLD	2	0	4	192
TTP	2	128	3	B	0	M1
TTP	2	144	4	E	0	M1
HLD	2	192	3	192
TTP	2	320	4	B	0	M1
TTP	2	336	4	E	0	M1
HLD	3	0	5	192
TTP	3	128	3	B	0	M1
TTP	3	144	4	E	0	M1
HLD	3	192	2	192
TTP	3	320	4	B	0	M1
TTP	3	336	4	E	0	M1
HLD	4	0	4	192
TTP	4	128	3	B	0	M1
TTP	4	144	4	E	0	M1
TAP	4	192	3
TAP	4	240	2
TAP	4	288	4
TAP	4	336	5
TAP	5	0	3
HLD	5	48	2	32
TTP	5	128	4	B	0	M1
TTP	5	144	4	E	0	M1
TAP	5	192	4
HLD	5	240	5	32
TTP	5	320	3	B	0	M1
TTP	5	336	4	E	0	M1
TAP	6	0	3
HLD	6	48	2	32
TTP	6	128	4	B	0	M1
TTP	6	144	4	E	0	M1
TAP	6	192	4
HLD	6	240	5	32
TTP	6	320	3	B	0	M1
TTP	6	336	4	E	0	M1
TAP	7	0	3
HLD	7	48	2	32
TTP	7	128	4	B	0	M1
TTP	7	144	4	E	0	M1
TAP	7	192	4
HLD	7	240	5	32
TTP	7	320	3	B	0	M1
TTP	7	336	4	E	0	M1
TAP	8	0	3
HLD	8	48	2	32
TTP	8	128	4	B	0	M1
TTP	8	144	4	E	0	M1
TAP	8	192	5
TAP	8	288	0
STR	8	288	7
SI_	8	288	7	96	32	3
BRK	9	0	7
TAP	9	32	2
TAP	9	48	2
TAP	9	80	1
TAP	9	80	3
TAP	9	128	1
TAP	9	144	0
TAP	9	176	2
TAP	9	192	3
TAP	9	224	5
TAP	9	240	5
TAP	9	272	4
TAP	9	272	6
TAP	9	320	6
TAP	9	336	7
TAP	9	368	5
TAP	10	0	4
TAP	10	32	2
TAP	10	48	2
TAP	10	80	1
TAP	10	80	3
TAP	10	128	1
TAP	10	144	0
TAP	10	176	2
TAP	10	192	3
TAP	10	224	5
TAP	10	240	5
TAP	10	272	4
TAP	10	272	6
TAP	10	320	7
TAP	10	336	0
TAP	10	368	2
TAP	11	0	3
TAP	11	32	3
TAP	11	48	2
TAP	11	80	1
TAP	11	80	3
TAP	11	128	1
TAP	11	144	0
TAP	11	176	2
TAP	11	192	3
TAP	11	224	5
TAP	11	240	5
TAP	11	272	4
TAP	11	272	6
TAP	11	320	6
TAP	11	336	7
TAP	11	368	5
TAP	12	0	4
TAP	12	32	2
TAP	12	48	3
TAP	12	80	1
TAP	12	96	0
TAP	12	128	5
TAP	12	144	4
TAP	12	176	6
TAP	12	192	7
TAP	12	224	2
TAP	12	240	3
TAP	12	272	1
STR	12	288	0
SI_	12	288	0	96	672	4
TTP	13	0	0	E	0	M1
TTP	13	48	1	E	0	M1
TTP	13	96	2	E	0	M1
TTP	13	144	3	E	0	M1
TTP	13	192	4	E	0	M1
TTP	13	240	5	E	0	M1
TTP	13	288	6	E	0	M1
TTP	13	336	7	E	0	M1
TTP	14	0	0	E	0	M1
TTP	14	48	1	E	0	M1
TTP	14	96	2	E	0	M1
TTP	14	144	3	E	0	M1
TTP	14	192	4	E	0	M1
TTP	14	240	5	E	0	M1
TTP	14	288	6	E	0	M1
TTP	14	336	7	E	0	M1
TAP	15	0	0
TAP	15	32	0
TAP	15	48	1
TAP	15	80	1
TAP	15	96	2
TAP	15	128	2
TAP	15	144	3
TAP	15	176	3
TAP	15	192	4
TAP	15	224	4
TAP	15	240	5
TAP	15	272	5
TAP	15	288	6
TAP	15	320	6
TAP	15	336	7
TAP	15	368	7
TAP	16	0	3
TAP	16	16	2
TAP	16	32	1
TAP	16	48	4
TAP	16	64	5
TAP	16	80	6
TAP	16	96	3
TAP	16	112	2
TAP	16	128	1
TAP	16	144	4
TAP	16	160	5
TAP	16	176	6
TAP	16	192	7
TAP	16	208	0
TAP	16	224	1
TAP	16	240	2
TAP	16	256	3
TAP	16	272	4
TAP	16	288	5
XTP	16	336	7
TAP	17	0	3
STR	17	0	5
SI_	17	0	5	96	32	2
TAP	17	48	4
STR	17	48	6
SI_	17	48	6	96	32	1
TAP	17	192	3
STR	17	240	5
SI_	17	240	5	96	32	2
STR	17	288	2
SI_	17	288	2	96	32	5
TAP	17	336	1
TAP	18	0	0
TTP	18	48	1	E	0	M1
TTP	18	56	1	B	0	M1
TTP	18	64	2	B	0	M1
TTP	18	72	3	E	0	M1
STR	18	96	5
SCR	18	96	5	96	32	0
XST	18	144	0
SCL	18	144	0	96	48	4
TAP	18	192	3
XHO	18	288	2	32
XHO	18	336	1	32
XHO	18	336	5	32
TAP	19	0	2
STR	19	0	4
SI_	19	0	4	96	16	6
TAP	19	48	3
TAP	19	48	5
TAP	19	96	2
TTP	19	144	3	E	0	M1
TTP	19	160	4	E	0	M1
TTP	19	176	5	E	0	M1
HLD	19	192	0	32
TAP	19	240	6
TAP	19	240	7
STR	19	288	4
SI_	19	288	4	96	48	7
TAP	19	288	6
TAP	19	304	3
TAP	19	320	2
TAP	19	336	4
TAP	19	352	5
TAP	19	368	6
STR	20	0	4
SCL	20	0	4	96	48	1
STR	20	96	4
SCR	20	96	4	96	48	7
STR	20	192	4
SI_	20	192	4	96	48	1
HLD	21	0	0	32
HLD	21	0	2	32
HLD	21	48	0	32
HLD	21	48	6	32
TAP	21	96	1
TAP	21	112	2
TAP	21	128	3
STR	21	144	6
SI_	21	144	6	96	16	0
TAP	21	160	5
TAP	21	176	4
STR	21	192	1
SI_	21	192	1	96	32	5
STR	21	240	6
SI_	21	240	6	96	32	3
STR	21	288	1
SCR	21	288	1	96	32	4
TAP	22	48	7
TAP	22	64	6
TAP	22	80	5
STR	22	96	0
SXL	22	96	0	96	48	2
TAP	22	112	1
TAP	22	128	2
STR	22	144	7
SXR	22	144	7	96	48	5
TAP	22	160	6
TAP	22	176	5
STR	22	288	3
SXR	22	288	3	96	144	0
STR	23	96	4
SXL	23	96	4	96	144	7
STR	23	288	2
SXR	23	288	2	96	192	4
SLL	23	288	2	96	192	5
STR	24	288	0
SI_	24	288	0	96	32	4
STR	24	288	7
SI_	24	288	7	96	32	3
XTP	24	320	3
XTP	24	320	4
XTP	24	336	2
XTP	24	336	5
BRK	25	96	0
BRK	25	96	7
TAP	25	192	2
TAP	25	208	1
TAP	25	224	0
TAP	25	240	5
TAP	25	256	6
TAP	25	272	7
STR	25	288	3
SI_	25	288	3	96	32	0
TAP	25	304	2
TAP	25	320	1
STR	25	336	4
SCR	25	336	4	96	32	7
TAP	25	352	5
TAP	25	368	6
STR	26	0	3
SUR	26	0	3	96	96	2
TTP	26	144	0	C	0	M1
XTP	26	192	7
XTP	26	240	0
TTP	26	288	3	E	0	M1
TTP	26	304	4	E	0	M1
TTP	26	320	5	E	0	M1
TTP	26	336	6	B	0	M1
TTP	26	352	0	C	0	M1
TTP	26	368	1	B	0	M1
TAP	27	0	7
TAP	27	48	7
STR	27	96	6
SI_	27	96	6	96	16	4
STR	27	144	4
SV_	27	144	4	96	32	3
STR	27	192	3
SI_	27	192	3	96	16	1
TAP	27	240	1
XTP	27	288	0
XTP	27	336	0
STR	28	0	7
SI_	28	0	7	96	32	3
TAP	28	48	6
STR	28	96	5
SI_	28	96	5	96	32	1
TAP	28	144	4
STR	28	192	3
SI_	28	192	3	96	32	7
TAP	28	240	2
STR	28	288	1
SI_	28	288	1	96	48	5
TAP	28	336	0
STR	29	0	0
SXL	29	0	0	96	96	4
HLD	29	96	7	96
TAP	29	240	3
STR	29	288	0
SCR	29	288	0	96	32	3
STR	29	288	4
SCR	29	288	4	96	32	7
TTP	29	336	0	C	0	M1
TTP	29	336	1	B	0	M1
TTP	29	336	5	B	0	M1
STR	30	96	2
SI_	30	96	2	96	16	4
STR	30	96	6
SI_	30	96	6	96	16	0
TAP	30	144	1
TAP	30	144	5
STR	30	192	2
SCL	30	192	2	96	16	0
STR	30	192	6
SCL	30	192	6	96	16	4
TAP	30	240	3
TAP	30	240	7
XTP	31	0	4
TAP	31	16	5
TAP	31	32	6
XTP	31	48	0
TAP	31	64	1
TAP	31	80	2
XTP	31	96	5
TAP	31	112	6
TAP	31	128	7
XTP	31	144	1
TAP	31	160	2
TAP	31	176	3
XTP	31	192	6
TAP	31	208	7
TAP	31	224	0
XTP	31	240	2
TAP	31	256	3
TAP	31	272	4
XTP	31	288	7
TAP	31	304	0
TAP	31	320	1
XTP	31	336	3
TAP	31	352	4
TAP	31	368	5
XTP	32	0	0
TAP	32	16	1
TAP	32	32	2
TAP	32	48	3
TAP	32	64	4
TAP	32	80	5
XTP	32	96	1
TAP	32	112	2
TAP	32	128	3
TAP	32	144	4
TAP	32	160	5
TAP	32	176	6
XTP	32	192	2
TAP	32	208	3
TAP	32	224	4
TAP	32	240	5
TAP	32	256	6
TAP	32	272	7
STR	32	288	2
SI_	32	288	2	96	32	7
TAP	32	304	1
TAP	32	320	0
TAP	32	336	5
TAP	32	352	6
TAP	32	368	7
STR	33	0	2
SI_	33	0	2	96	32	5
XTP	33	48	6
STR	33	96	2
SI_	33	96	2	96	48	6
XTP	33	144	4
STR	33	192	2
SI_	33	192	2	96	16	4
XTP	33	240	7
STR	33	288	2
SXR	33	288	2	96	96	4
XTP	33	336	5
TTP	34	0	0	C	1	M1
XTP	34	144	3
XTP	34	144	5
TAP	34	192	4
TAP	34	224	4
TAP	34	240	2
TAP	34	272	2
STR	34	288	3
SI_	34	288	3	96	32	6
TAP	34	320	3
STR	34	336	0
SI_	34	336	0	96	32	4
BRK	35	48	0
STR	35	96	7
SLR	35	96	7	96	32	3
XTP	35	144	6
XST	35	144	7
SLL	35	144	7	96	32	3
STR	35	288	1
SV_	35	288	1	96	32	4
TAP	35	304	2
TAP	35	320	3
TAP	35	336	0
TAP	35	352	7
TAP	35	368	6
TAP	36	0	5
TAP	36	96	1
STR	36	96	5
SI_	36	96	5	96	32	2
STR	36	144	2
SI_	36	144	2	96	32	5
TAP	36	144	6
XTP	36	288	0
TAP	36	304	1
TAP	36	320	2
XTP	36	336	4
TAP	36	352	5
TAP	36	368	6
STR	37	0	0
SCR	37	0	0	96	48	3
TAP	37	48	3
STR	37	96	4
SI_	37	96	4	96	32	0
STR	37	144	5
SI_	37	144	5	96	16	7
STR	37	288	1
SI_	37	288	1	96	32	5
TAP	37	304	2
TAP	37	320	3
TAP	37	336	7
TAP	37	352	6
TAP	37	368	5
STR	38	0	4
SI_	38	0	4	96	32	1
TAP	38	48	6
STR	38	96	7
SI_	38	96	7	96	32	3
TAP	38	144	2
STR	38	192	0
SV_	38	192	0	96	48	5
SLR	38	192	0	96	48	4
TAP	38	240	1
STR	38	288	0
SCL	38	288	0	96	96	1
TTP	39	0	0	C	1	M1
TAP	39	96	5
STR	39	144	6
SCL	39	144	6	96	48	3
STR	39	144	7
SCR	39	144	7	96	48	2
STR	39	192	2
SXL	39	192	2	96	48	4
STR	39	192	3
SXR	39	192	3	96	48	1
STR	40	0	4
SI_	40	0	4	96	48	0
STR	40	0	5
SI_	40	0	5	96	48	1
XTP	40	48	0
XTP	40	48	1
XTP	40	64	2
XTP	40	64	7
XTP	40	80	3
XTP	40	80	6
XTP	40	96	4
XTP	40	96	5
HLD	40	192	0	32
HLD	40	192	7	32
HLD	40	240	4	32
HLD	40	240	6	32
HLD	40	288	0	32
STR	40	288	7
SCL	40	288	7	96	96	0
HLD	40	336	1	32
HLD	40	336	3	32
STR	41	0	7
SI_	41	0	7	96	64	3
TAP	41	192	1
TAP	41	224	1
TAP	41	240	3
TAP	41	272	3
STR	41	288	4
SCL	41	288	4	96	96	5
TAP	41	320	4
TAP	41	336	6
TTP	42	0	0	C	0	M1
TAP	42	192	0
TAP	42	192	7
TAP	42	224	3
TAP	42	240	4
STR	42	288	2
SCR	42	288	2	96	32	4
HLD	42	288	5	32
TTP	43	0	4	E	0	M1
STR	43	96	2
SCR	43	96	2	96	32	4
TTP	43	96	5	E	0	M1
TTP	43	192	6	E	0	M1
STR	43	288	2
SCR	43	288	2	96	32	4
TTP	43	288	7	E	0	M1
TTP	44	0	7	B	0	M1
STR	44	96	4
SCL	44	96	4	96	32	2
TTP	44	96	6	B	0	M1
TTP	44	192	5	B	0	M1
STR	44	288	2
SCR	44	288	2	96	32	4
TTP	44	288	4	B	0	M1
TTP	45	0	4	E	0	M1
STR	45	96	2
SCR	45	96	2	96	32	4
TTP	45	96	5	E	0	M1
TTP	45	192	6	E	0	M1
STR	45	288	2
SCR	45	288	2	96	32	4
TTP	45	288	7	E	0	M1
TTP	46	0	0	E	0	M1
TTP	46	96	1	E	0	M1
TAP	46	96	4
TTP	46	192	2	E	0	M1
TAP	46	192	4
TTP	46	288	3	E	0	M1
STR	46	288	5
SCL	46	288	5	96	32	3
TTP	47	0	4	E	0	M1
TTP	47	96	3	E	0	M1
STR	47	96	5
SCL	47	96	5	96	32	3
TTP	47	192	2	E	0	M1
TTP	47	288	1	E	0	M1
STR	47	288	5
SCL	47	288	5	96	32	3
TTP	48	0	0	B	0	M1
TTP	48	96	1	B	0	M1
STR	48	96	3
SCR	48	96	3	96	32	5
TTP	48	192	2	B	0	M1
TTP	48	288	3	B	0	M1
STR	48	288	5
SCL	48	288	5	96	32	3
TTP	49	0	4	E	0	M1
TTP	49	96	3	E	0	M1
STR	49	96	5
SCL	49	96	5	96	32	3
TTP	49	192	2	E	0	M1
TTP	49	288	1	E	0	M1
STR	49	288	5
SCL	49	288	5	96	32	3
TTP	50	0	0	B	0	M1
TTP	50	96	1	B	0	M1
STR	50	96	3
SCR	50	96	3	96	32	5
TTP	50	192	2	B	0	M1
TTP	50	288	3	B	0	M1
STR	50	288	5
SUL	50	288	5	96	384	3

T_REC_TAP	234
T_REC_BRK	4
T_REC_XTP	37
T_REC_HLD	28
T_REC_XHO	3
T_REC_STR	84
T_REC_BST	0
T_REC_XST	2
T_REC_TTP	96
T_REC_THO	0
T_REC_SLD	88
T_REC_ALL	576
T_NUM_TAP	453
T_NUM_BRK	4
T_NUM_HLD	31
T_NUM_SLD	88
T_NUM_ALL	576
T_JUDGE_TAP	457
T_JUDGE_HLD	106
T_JUDGE_SLD	88
T_JUDGE_ALL	651
TTM_EACHPAIRS	42
TTM_SCR_TAP	226500
TTM_SCR_BRK	10400
TTM_SCR_HLD	31000
TTM_SCR_SLD	132000
TTM_SCR_ALL	399900
TTM_SCR_S	387550
TTM_SCR_SS	399500
TTM_RAT_ACV	10010

