VERSION	0.00.00	1.03.00
FES_MODE	0
BPM_DEF	 95.000	 95.000	 95.000	 95.000
MET_DEF	4	4
RESOLUTION	384
CLK_DEF	384
COMPATIBLE_CODE	MA2

BPM	0	0	 95.000
MET	0	0	4	4

HLD	1	0	3	80
HLD	1	0	4	48
HLD	1	192	3	48
HLD	1	192	4	80
HLD	2	0	2	80
HLD	2	0	5	48
HLD	2	192	2	48
HLD	2	192	5	80
HLD	3	0	3	80
HLD	3	0	5	48
HLD	3	192	2	48
HLD	3	192	4	80
HLD	4	0	3	80
HLD	4	0	5	48
TTP	4	192	1	B	0	M1
TTP	4	192	2	E	0	M1
TTP	4	288	6	B	0	M1
TTP	4	288	6	E	0	M1
HLD	5	0	3	80
HLD	5	0	5	48
TAP	5	144	2
TAP	5	144	4
HLD	5	192	2	48
HLD	5	192	4	80
TAP	5	336	3
TAP	5	336	5
HLD	6	0	3	80
HLD	6	0	5	48
TAP	6	144	2
TAP	6	144	4
HLD	6	192	2	48
HLD	6	192	4	80
TAP	6	336	3
TAP	6	336	5
HLD	7	0	4	80
HLD	7	0	6	48
TAP	7	144	2
TAP	7	144	4
HLD	7	192	1	48
HLD	7	192	3	80
TAP	7	336	3
TAP	7	336	5
HLD	8	0	4	80
HLD	8	0	6	48
TAP	8	144	3
TAP	8	144	4
HLD	8	192	2	80
HLD	8	192	5	48
TAP	8	336	1
TAP	8	336	4
XST	9	0	1
SCR	9	0	1	96	48	3
XST	9	0	4
SXL	9	0	4	96	144	3
TAP	9	336	3
TAP	9	336	6
XST	10	0	3
SXR	10	0	3	96	144	4
XST	10	0	6
SCL	10	0	6	96	48	4
TAP	10	336	2
TAP	10	336	3
XST	11	0	1
SCR	11	0	1	96	48	3
XST	11	0	4
SXL	11	0	4	96	144	3
TAP	11	336	4
TAP	11	336	5
XST	12	0	3
SCL	12	0	3	96	48	0
XST	12	0	7
SCL	12	0	7	96	48	4
TAP	12	192	1
TAP	12	192	5
TAP	12	288	2
TAP	12	288	6
HLD	13	0	4	96
TAP	13	0	5
HLD	13	96	6	96
TAP	13	192	5
TAP	13	240	5
TAP	13	288	4
TAP	13	288	6
TAP	14	0	2
HLD	14	0	3	96
HLD	14	96	1	96
TAP	14	192	2
TAP	14	240	2
TAP	14	288	1
TAP	14	288	3
HLD	15	0	6	96
TAP	15	48	5
HLD	15	96	4	96
TAP	15	144	3
HLD	15	192	2	96
TAP	15	240	1
HLD	15	288	0	48
TAP	15	336	7
HLD	16	0	0	32
HLD	16	0	7	32
HLD	16	48	0	32
HLD	16	48	1	32
HLD	16	96	1	32
HLD	16	96	2	32
HLD	16	144	2	32
HLD	16	144	3	32
TAP	16	192	3
TAP	16	192	4
TAP	16	224	4
TAP	16	240	3
TAP	16	272	3
TAP	16	288	4
BRK	17	0	1
BST	17	0	6
SV_	17	0	6	96	48	4
TTP	17	96	3	E	0	M1
STR	17	192	3
SI_	17	192	3	96	48	0
TAP	17	240	2
TAP	17	240	4
STR	18	0	6
SLL	18	0	6	96	72	7
TTP	18	96	0	C	0	M1
STR	18	192	0
SCL	18	192	0	96	48	5
SCR	18	192	0	96	48	3
TAP	18	240	1
TAP	18	240	7
STR	19	0	2
SV_	19	0	2	96	48	0
TAP	19	0	6
TTP	19	96	7	E	0	M1
STR	19	192	7
SSR	19	192	7	96	72	3
TAP	19	240	0
TAP	19	240	6
STR	20	0	2
SI_	20	0	2	96	48	7
STR	20	96	6
SI_	20	96	6	96	48	3
STR	20	192	0
SI_	20	192	0	96	48	4
TAP	20	288	3
TAP	21	0	2
STR	21	0	6
SCL	21	0	6	96	48	3
STR	21	96	1
SXL	21	96	1	96	96	4
TTP	21	192	5	E	0	M1
STR	21	288	6
SLL	21	288	6	96	96	0
TTP	22	0	2	E	0	M1
TAP	22	96	2
STR	22	192	0
SUL	22	192	0	96	48	4
SUR	22	192	0	96	48	4
TAP	22	240	1
TAP	22	240	7
STR	23	0	2
SUR	23	0	2	96	48	0
HLD	23	0	6	96
HLD	23	192	1	96
STR	23	192	5
SUL	23	192	5	96	48	7
THO	24	0	0	288	C	0	M1
STR	24	0	6
SCL	24	0	6	96	120	1
BRK	24	288	0
XTP	25	0	0
XTP	25	0	7
STR	25	96	3
SUL	25	96	3	96	144	0
STR	25	96	4
SXL	25	96	4	96	144	7
XTP	26	0	0
XTP	26	0	7
TAP	26	48	6
TAP	26	96	3
TAP	26	96	5
XTP	26	192	0
XTP	26	192	7
TAP	26	240	1
TAP	26	288	2
TAP	26	288	4
HLD	27	0	1	48
HLD	27	0	3	48
HLD	27	96	4	48
HLD	27	96	6	48
HLD	27	192	5	48
HLD	27	240	4	48
HLD	27	288	3	48
TAP	27	336	2
TAP	28	0	3
TAP	28	0	4
TAP	28	48	5
TAP	28	80	5
TAP	28	96	4
TAP	28	144	3
TAP	28	144	6
TAP	28	192	2
TAP	28	240	2
TAP	28	240	3
STR	28	288	1
SUR	28	288	1	96	48	6
TAP	28	288	4
TTP	29	0	0	C	0	M1
TAP	29	96	0
TAP	29	96	7
TAP	29	144	0
TAP	29	144	7
HLD	29	192	6	48
HLD	29	240	4	48
HLD	29	288	3	48
HLD	29	336	1	48
STR	30	0	0
SCL	30	0	0	96	48	5
STR	30	96	1
SCR	30	96	1	96	48	4
STR	30	192	5
SCR	30	192	5	96	48	0
STR	30	288	3
SUR	30	288	3	96	120	4
HLD	31	0	7	192
HLD	31	192	5	192
HLD	32	0	3	96
HLD	32	96	1	96
HLD	32	192	7	96
HLD	32	288	4	96
THO	33	0	0	288	C	0	M1
TAP	33	96	2
TAP	33	192	1
TAP	33	288	0
XTP	34	0	0
XTP	34	0	7
TAP	34	48	6
TAP	34	48	7
TAP	34	96	5
TAP	34	96	6
TAP	34	144	4
TAP	34	144	5
TAP	34	192	3
TAP	34	192	4
TAP	34	224	3
TAP	34	240	4
TAP	34	272	4
TAP	34	288	3
TAP	34	320	3
HLD	34	336	4	48
TAP	35	0	3
XTP	35	48	0
XHO	35	48	1	96
STR	35	96	7
SI_	35	96	7	96	48	2
STR	35	144	6
SI_	35	144	6	96	48	3
TAP	35	288	1
TAP	35	336	2
TAP	36	0	3
TAP	36	0	4
TAP	36	48	5
TAP	36	96	3
TAP	36	96	6
TAP	36	128	5
TAP	36	144	4
TAP	36	176	4
STR	36	192	7
SCL	36	192	7	96	64	4
SLR	36	192	7	96	64	4
TAP	36	240	7
TAP	37	0	3
HLD	37	0	5	144
STR	37	96	3
SI_	37	96	3	96	48	6
STR	37	144	2
SI_	37	144	2	96	48	7
TAP	37	288	5
TAP	37	336	0
TAP	37	336	4
TAP	38	0	1
TAP	38	0	3
HLD	38	48	2	32
TAP	38	80	3
TAP	38	96	1
HLD	38	144	5	32
TAP	38	176	4
STR	38	192	7
SI_	38	192	7	96	48	2
SI_	38	192	7	96	48	4
TAP	38	240	7
STR	39	0	3
SCL	39	0	3	96	48	0
TAP	39	0	4
TAP	39	48	5
STR	39	96	6
SI_	39	96	6	96	48	3
STR	39	144	7
SI_	39	144	7	96	48	2
TAP	39	288	4
TAP	39	320	4
TAP	39	336	3
TAP	39	368	3
TAP	40	0	5
TAP	40	48	4
TAP	40	48	6
TAP	40	96	2
TAP	40	144	1
TAP	40	144	3
TAP	40	192	0
TAP	40	192	4
TAP	40	224	5
TAP	40	240	7
TAP	40	272	7
TAP	40	288	0
TAP	40	320	0
TAP	40	336	2
TAP	40	368	2
STR	41	0	4
SCR	41	0	4	96	48	7
HLD	41	96	3	96
STR	41	192	0
SCR	41	192	0	96	48	3
TAP	41	240	7
HLD	41	288	6	32
TAP	42	0	4
TAP	42	0	5
TAP	42	32	5
TAP	42	48	4
TAP	42	80	4
TAP	42	96	6
TAP	42	144	3
TAP	42	144	4
TAP	42	176	2
TAP	42	192	3
TAP	42	224	3
TAP	42	240	1
TAP	42	272	1
BRK	42	288	7
HLD	43	0	3	80
HLD	43	0	4	48
HLD	43	192	3	48
HLD	43	192	4	80
HLD	44	0	2	80
HLD	44	0	5	48
HLD	44	192	2	48
HLD	44	192	5	80
HLD	45	0	1	80
HLD	45	0	6	48
HLD	45	192	1	48
HLD	45	192	6	80
HLD	46	0	0	80
HLD	46	0	7	48
TTP	46	192	6	B	0	M1
TTP	46	192	7	E	0	M1
TTP	46	288	1	B	0	M1
TTP	46	288	1	E	0	M1
HLD	47	0	4	80
HLD	47	0	5	48
HLD	47	192	5	48
HLD	47	192	6	80
HLD	48	0	6	80
HLD	48	0	7	48
HLD	48	192	0	48
HLD	48	192	7	80
HLD	49	0	0	48
HLD	49	0	1	80
HLD	49	192	1	48
HLD	49	192	2	80
HLD	50	0	2	80
HLD	50	0	3	48
HLD	50	192	3	48
HLD	50	192	4	48
TAP	50	272	3
STR	50	272	4
SCL	50	272	4	96	400	5

T_REC_TAP	154
T_REC_BRK	3
T_REC_XTP	9
T_REC_HLD	101
T_REC_XHO	1
T_REC_STR	34
T_REC_BST	1
T_REC_XST	8
T_REC_TTP	14
T_REC_THO	2
T_REC_SLD	47
T_REC_ALL	374
T_NUM_TAP	219
T_NUM_BRK	4
T_NUM_HLD	104
T_NUM_SLD	47
T_NUM_ALL	374
T_JUDGE_TAP	223
T_JUDGE_HLD	332
T_JUDGE_SLD	47
T_JUDGE_ALL	602
TTM_EACHPAIRS	97
TTM_SCR_TAP	109500
TTM_SCR_BRK	10400
TTM_SCR_HLD	104000
TTM_SCR_SLD	70500
TTM_SCR_ALL	294400
TTM_SCR_S	285200
TTM_SCR_SS	294000
TTM_RAT_ACV	10013

