VERSION	0.00.00	1.03.00
FES_MODE	0
BPM_DEF	 95.000	 95.000	 95.000	 95.000
MET_DEF	4	4
RESOLUTION	384
CLK_DEF	384
COMPATIBLE_CODE	MA2

BPM	0	0	 95.000
MET	0	0	4	4

TTP	1	0	4	E	0	L1
TTP	1	192	3	E	0	L1
TTP	2	0	2	E	0	L1
TTP	2	192	1	E	0	L1
TTP	3	0	0	E	0	L1
TTP	3	192	7	E	0	L1
TTP	4	0	6	E	0	L1
TTP	4	192	5	E	0	L1
TTP	5	0	4	E	0	L1
TTP	5	192	5	E	0	L1
TTP	6	0	6	E	0	L1
TTP	6	192	7	E	0	L1
TTP	7	0	0	E	0	L1
TTP	7	192	1	E	0	L1
TTP	8	0	2	E	0	L1
TTP	8	192	3	E	0	L1
STR	9	0	4
SXL	9	0	4	96	192	7
STR	10	0	0
SXL	10	0	0	96	192	3
STR	11	0	4
SXR	11	0	4	96	192	7
STR	12	0	0
SXR	12	0	0	96	192	3
TAP	13	0	5
TAP	13	96	5
TAP	13	192	4
TAP	13	192	5
TAP	14	0	2
TAP	14	96	2
TAP	14	192	2
TAP	14	192	3
TAP	15	0	4
TAP	15	0	5
TAP	15	96	3
TAP	15	96	4
TAP	15	192	2
TAP	15	192	3
TAP	15	288	3
TAP	15	288	4
TAP	16	0	5
TAP	16	48	5
TAP	16	96	4
TAP	16	144	4
TAP	16	192	3
TAP	16	240	3
TAP	16	288	2
TAP	16	288	4
HLD	17	0	1	96
TAP	17	96	0
HLD	17	192	6	96
TAP	17	288	7
HLD	18	0	1	96
TAP	18	96	0
TAP	18	192	7
TAP	18	240	7
TAP	18	288	0
TAP	18	288	6
HLD	19	0	5	96
TAP	19	96	4
TAP	19	192	3
TAP	19	240	3
TAP	19	288	2
TAP	19	288	4
HLD	20	0	5	96
HLD	20	96	4	96
HLD	20	192	3	96
TAP	20	288	2
HLD	21	0	5	96
TAP	21	96	4
HLD	21	192	2	96
TAP	21	288	3
HLD	22	0	5	96
TAP	22	96	4
TAP	22	192	3
TAP	22	240	3
TAP	22	288	2
TAP	22	288	4
HLD	23	0	4	96
HLD	23	0	5	96
HLD	23	192	2	96
HLD	23	192	3	96
STR	24	0	3
SI_	24	0	3	96	72	0
STR	24	0	4
SI_	24	0	4	96	72	7
XTP	24	288	0
XTP	24	288	7
BRK	25	0	1
BRK	25	0	6
TAP	25	96	1
STR	25	96	6
SLL	25	96	6	96	144	2
STR	26	0	1
SI_	26	0	1	96	72	5
STR	26	192	6
SI_	26	192	6	96	72	2
TAP	27	0	1
TAP	27	96	1
TAP	27	192	0
TAP	27	288	0
TAP	28	0	6
TAP	28	0	7
TAP	28	96	4
TAP	28	96	5
HLD	28	192	2	96
HLD	28	192	3	96
STR	29	0	1
SI_	29	0	1	96	72	4
STR	29	192	5
SI_	29	192	5	96	72	0
STR	30	0	1
SI_	30	0	1	96	72	5
TAP	30	192	6
TAP	30	288	6
TAP	31	0	7
TAP	31	96	0
TAP	31	192	1
TAP	31	288	2
TAP	32	0	3
TAP	32	96	4
TAP	32	192	5
TAP	32	288	6
TAP	33	0	6
TAP	33	0	7
TAP	33	96	0
TAP	33	96	7
TAP	33	192	0
TAP	33	192	1
TAP	33	288	0
TAP	33	288	7
TAP	34	0	1
TAP	34	48	1
TAP	34	96	0
TAP	34	144	0
TAP	34	192	7
TAP	34	240	7
TAP	34	288	0
TAP	34	288	7
TAP	35	0	1
XTP	35	48	1
TAP	35	96	0
TAP	35	96	1
TAP	35	192	6
TAP	35	240	6
TAP	35	288	6
TAP	35	288	7
TAP	36	0	5
TAP	36	48	5
TAP	36	96	4
TAP	36	144	4
TAP	36	192	3
TAP	36	240	3
TAP	36	288	3
TAP	36	288	4
TAP	37	0	2
TAP	37	48	2
TAP	37	96	2
TAP	37	96	3
TAP	37	192	5
TAP	37	240	5
TAP	37	288	4
TAP	37	288	5
TAP	38	0	6
TAP	38	48	6
TAP	38	96	7
TAP	38	144	7
TAP	38	192	0
TAP	38	240	0
TAP	38	288	1
TAP	38	288	7
TAP	39	0	6
TAP	39	48	6
TAP	39	96	6
TAP	39	96	7
TAP	39	192	1
TAP	39	240	1
TAP	39	288	0
TAP	39	288	1
TAP	40	0	6
TAP	40	48	6
TAP	40	96	7
TAP	40	144	7
TAP	40	192	0
TAP	40	240	0
TAP	40	288	1
TAP	40	288	7
TAP	41	0	2
TAP	41	48	2
TAP	41	96	1
TAP	41	96	3
TAP	41	192	5
TAP	41	240	5
TAP	41	288	4
TAP	41	288	6
TAP	42	0	0
TAP	42	0	7
TAP	42	96	1
TAP	42	96	2
TAP	42	192	3
TAP	42	192	4
TAP	42	240	3
TAP	42	240	4
BRK	42	288	2
BRK	42	288	5
TTP	43	0	4	E	0	L1
TTP	43	192	5	E	0	L1
TTP	44	0	6	E	0	L1
TTP	44	192	7	E	0	L1
TTP	45	0	0	E	0	L1
TTP	45	192	1	E	0	L1
TTP	46	0	2	E	0	L1
TTP	46	192	3	E	0	L1
TTP	47	0	4	E	0	L1
TTP	47	192	4	B	0	L1
TTP	48	0	5	B	0	L1
TTP	48	192	6	B	0	L1
TTP	49	0	7	B	0	L1
TTP	49	192	0	B	0	L1
TTP	50	0	1	B	0	L1
TTP	50	192	0	C	0	L1

T_REC_TAP	142
T_REC_BRK	4
T_REC_XTP	3
T_REC_HLD	16
T_REC_XHO	0
T_REC_STR	12
T_REC_BST	0
T_REC_XST	0
T_REC_TTP	32
T_REC_THO	0
T_REC_SLD	12
T_REC_ALL	221
T_NUM_TAP	189
T_NUM_BRK	4
T_NUM_HLD	16
T_NUM_SLD	12
T_NUM_ALL	221
T_JUDGE_TAP	193
T_JUDGE_HLD	64
T_JUDGE_SLD	12
T_JUDGE_ALL	269
TTM_EACHPAIRS	40
TTM_SCR_TAP	94500
TTM_SCR_BRK	10400
TTM_SCR_HLD	16000
TTM_SCR_SLD	18000
TTM_SCR_ALL	138900
TTM_SCR_S	134350
TTM_SCR_SS	138500
TTM_RAT_ACV	10028

