VERSION	0.00.00	1.03.00
FES_MODE	0
BPM_DEF	 95.000	 95.000	 95.000	 95.000
MET_DEF	4	4
RESOLUTION	384
CLK_DEF	384
COMPATIBLE_CODE	MA2

BPM	0	0	 95.000
MET	0	0	4	4

TAP	5	0	3
TAP	6	0	3
TAP	7	0	4
TAP	8	0	4
TAP	9	0	5
TAP	9	192	5
TAP	10	0	6
TAP	10	192	6
TAP	11	0	7
TAP	11	192	7
TAP	12	0	0
TAP	12	192	0
TAP	13	0	1
TAP	13	192	1
TAP	14	0	2
TAP	14	192	2
TAP	15	0	3
TAP	15	192	3
TAP	16	0	3
TAP	16	0	4
TAP	16	192	3
TAP	16	192	4
BRK	17	0	2
TAP	17	96	2
TAP	17	192	2
HLD	18	0	1	192
TAP	19	0	0
TAP	19	96	0
TAP	19	192	0
HLD	20	0	7	192
TAP	21	0	6
TAP	21	96	6
TAP	21	192	6
HLD	22	0	5	192
TAP	23	0	4
TAP	23	96	4
TAP	23	192	4
HLD	24	0	3	192
HLD	24	0	4	192
STR	25	0	3
SI_	25	0	3	96	144	0
TAP	26	0	7
TAP	26	192	7
STR	27	0	7
SI_	27	0	7	96	144	4
TAP	28	0	3
TAP	28	192	3
STR	29	0	2
SI_	29	0	2	96	144	5
TAP	30	0	6
TAP	30	192	6
STR	31	0	6
SI_	31	0	6	96	144	1
XTP	32	0	0
TAP	32	192	0
STR	33	0	0
SI_	33	0	0	96	144	3
TAP	34	0	4
TAP	34	192	3
TAP	34	192	4
XTP	35	0	5
XTP	35	48	5
TAP	35	192	6
TAP	35	240	6
XTP	36	0	0
XTP	36	0	7
TAP	36	96	0
TAP	36	96	7
TAP	36	192	0
TAP	36	192	7
TAP	37	0	1
TAP	37	48	1
TAP	37	192	2
TAP	37	240	2
TAP	38	0	3
TAP	38	0	4
TAP	38	96	3
TAP	38	96	4
TAP	38	192	3
TAP	38	192	4
TAP	39	0	2
TAP	39	48	2
TAP	39	192	1
TAP	39	240	1
TAP	40	0	0
TAP	40	0	7
TAP	40	96	0
TAP	40	96	7
TAP	40	192	0
TAP	40	192	7
TAP	41	0	6
TAP	41	48	6
TAP	41	192	5
TAP	41	240	5
TAP	42	0	3
TAP	42	0	4
TAP	42	96	3
TAP	42	96	4
TAP	42	192	2
TAP	42	192	5
TTP	43	0	3	B	0	L1
TTP	43	192	4	B	0	L1
TTP	44	0	2	B	0	L1
TTP	44	192	5	B	0	L1
TTP	45	0	1	B	0	L1
TTP	45	192	6	B	0	L1
THO	46	0	0	192	C	0	L1
TTP	47	0	7	B	0	L1
TTP	47	192	0	B	0	L1
TTP	48	0	6	B	0	L1
TTP	48	192	1	B	0	L1
TTP	49	0	5	B	0	L1
TTP	49	192	2	B	0	L1
TTP	50	0	4	B	0	L1
THO	50	192	0	192	C	0	L1

T_REC_TAP	79
T_REC_BRK	1
T_REC_XTP	5
T_REC_HLD	5
T_REC_XHO	0
T_REC_STR	5
T_REC_BST	0
T_REC_XST	0
T_REC_TTP	13
T_REC_THO	2
T_REC_SLD	5
T_REC_ALL	115
T_NUM_TAP	102
T_NUM_BRK	1
T_NUM_HLD	7
T_NUM_SLD	5
T_NUM_ALL	115
T_JUDGE_TAP	103
T_JUDGE_HLD	56
T_JUDGE_SLD	5
T_JUDGE_ALL	164
TTM_EACHPAIRS	16
TTM_SCR_TAP	51000
TTM_SCR_BRK	2600
TTM_SCR_HLD	7000
TTM_SCR_SLD	7500
TTM_SCR_ALL	68100
TTM_SCR_S	66000
TTM_SCR_SS	68000
TTM_RAT_ACV	10014

