VERSION	0.00.00	1.03.00
FES_MODE	0
BPM_DEF	192.000	192.000	192.000	192.000
MET_DEF	4	4
RESOLUTION	384
CLK_DEF	384
COMPATIBLE_CODE	MA2

BPM	0	0	192.000
BPM	12	0	192.000
BPM	28	0	192.000
BPM	36	0	192.000
BPM	44	0	192.000
BPM	52	0	192.000
BPM	60	0	192.000
BPM	68	0	192.000
BPM	74	0	192.000
BPM	76	0	192.000
BPM	84	0	192.000
BPM	92	0	192.000
BPM	100	0	192.000
MET	0	0	4	4

TAP	2	0	1
TAP	2	0	6
TAP	2	12	2
TAP	2	12	5
TAP	2	24	3
HLD	2	24	4	360
TAP	3	0	3
TAP	3	192	5
TAP	3	288	4
HLD	4	0	2	192
HLD	4	192	3	192
HLD	5	0	4	192
TAP	5	192	5
HLD	6	0	5	144
TAP	6	144	4
TAP	6	192	4
TAP	6	192	5
HLD	7	0	2	144
TAP	7	144	3
TAP	7	192	2
TAP	7	192	3
HLD	8	0	5	144
TAP	8	144	4
TAP	8	192	4
TAP	8	192	5
STR	9	0	2
SCL	9	0	2	96	672	3
TAP	9	0	6
TTP	10	0	0	B	0	M1
TTP	10	12	1	B	0	M1
TAP	11	192	3
TAP	11	216	4
TAP	11	240	2
TAP	11	264	5
TAP	11	288	1
TAP	11	312	6
TAP	11	336	0
TAP	11	360	7
XHO	12	0	0	96
HLD	12	144	1	96
HLD	12	144	3	96
HLD	12	288	2	96
HLD	12	288	4	96
STR	13	48	3
SI_	13	48	3	96	48	5
HLD	13	48	5	96
STR	13	192	6
SI_	13	192	6	96	48	3
TAP	13	288	3
XTP	14	0	2
XTP	14	0	4
HLD	14	96	3	96
HLD	14	96	5	96
HLD	14	240	2	96
HLD	14	240	4	96
HLD	15	0	3	96
HLD	15	0	5	96
HLD	15	144	2	96
HLD	15	144	4	96
TAP	15	288	1
TAP	15	288	5
TAP	16	0	2
TAP	16	48	2
TAP	16	96	1
TAP	16	96	3
STR	16	192	4
SI_	16	192	4	96	48	2
STR	16	192	6
SI_	16	192	6	96	48	4
TAP	17	0	5
TAP	17	48	5
TAP	17	96	4
TAP	17	96	6
TAP	17	192	1
TAP	17	192	3
TAP	17	288	3
TAP	17	288	4
TAP	18	0	5
TAP	18	48	4
TAP	18	96	3
TAP	18	96	5
TAP	18	192	2
TAP	18	240	3
TAP	18	288	2
TAP	18	288	4
TAP	19	0	3
TAP	19	0	5
TAP	19	96	2
TAP	19	96	4
TTP	19	192	6	B	0	M1
TTP	19	204	5	B	0	M1
TTP	19	216	4	B	0	M1
TTP	19	228	3	B	0	M1
TTP	19	240	2	B	0	M1
TTP	19	252	1	B	0	M1
XST	20	0	0
SI_	20	0	0	96	48	4
XTP	20	0	7
TAP	20	96	0
TAP	20	96	7
HLD	20	192	5	96
TAP	20	240	4
HLD	20	288	3	96
TAP	20	336	4
HLD	21	0	6	96
TAP	21	48	5
HLD	21	96	4	96
TAP	21	144	5
HLD	21	192	7	96
TAP	21	240	6
HLD	21	288	5	96
TAP	21	336	6
STR	22	0	7
SI_	22	0	7	96	48	3
TAP	22	96	0
TAP	22	96	7
HLD	22	192	2	96
TAP	22	240	3
HLD	22	288	4	96
TAP	22	336	3
HLD	23	0	1	96
TAP	23	48	2
HLD	23	96	3	96
TAP	23	144	2
HLD	23	192	0	96
TAP	23	240	1
HLD	23	288	2	96
TAP	23	336	1
STR	24	0	0
SI_	24	0	0	96	48	4
STR	24	96	6
SI_	24	96	6	96	48	2
STR	24	192	1
SI_	24	192	1	96	48	5
TAP	24	288	7
TAP	25	0	4
TAP	25	0	6
TAP	25	48	5
TAP	25	96	1
TAP	25	96	3
TAP	25	144	2
TAP	25	192	3
TAP	25	192	4
TAP	25	240	2
TAP	25	240	5
STR	25	288	1
SCR	25	288	1	96	192	7
STR	25	288	6
SCL	25	288	6	96	192	0
TAP	25	336	0
TAP	25	336	7
TAP	26	288	0
TAP	26	288	7
BRK	27	0	6
TAP	27	24	4
BRK	27	48	5
TAP	27	72	4
BRK	27	96	7
BRK	27	144	1
TAP	27	168	3
BRK	27	192	2
TAP	27	216	3
BRK	27	240	0
XTP	27	288	1
XTP	27	288	6
XTP	28	0	3
XTP	28	0	4
XTP	28	96	3
TTP	28	192	0	E	0	M1
XTP	28	192	3
TTP	28	216	7	E	0	M1
TTP	28	240	6	E	0	M1
TTP	28	264	5	E	0	M1
XTP	28	288	3
XTP	29	0	3
XTP	29	96	3
TTP	29	96	5	E	0	M1
TTP	29	120	6	E	0	M1
TTP	29	144	7	E	0	M1
TTP	29	168	0	E	0	M1
TTP	29	192	1	E	0	M1
XTP	29	192	3
TTP	29	216	2	E	0	M1
XTP	29	288	3
XTP	30	0	3
XTP	30	0	4
XTP	30	96	4
TTP	30	192	0	E	0	M1
XTP	30	192	4
TTP	30	216	1	E	0	M1
TTP	30	240	2	E	0	M1
TTP	30	264	3	E	0	M1
XTP	30	288	4
XTP	31	0	4
TTP	31	96	3	E	0	M1
XTP	31	96	4
TTP	31	120	2	E	0	M1
TTP	31	144	1	E	0	M1
TTP	31	168	0	E	0	M1
XTP	31	192	4
TTP	31	192	7	E	0	M1
TTP	31	216	6	E	0	M1
XTP	31	288	4
XTP	32	0	3
XTP	32	0	4
XTP	32	96	3
TTP	32	192	0	E	0	M1
XTP	32	192	3
TTP	32	216	7	E	0	M1
TTP	32	240	6	E	0	M1
TTP	32	264	5	E	0	M1
XTP	32	288	3
XTP	33	0	3
XTP	33	96	3
TTP	33	96	5	E	0	M1
TTP	33	120	6	E	0	M1
TTP	33	144	7	E	0	M1
TTP	33	168	0	E	0	M1
TTP	33	192	1	E	0	M1
XTP	33	192	3
TTP	33	216	2	E	0	M1
XTP	33	288	3
TAP	34	0	3
TAP	34	0	4
TAP	34	48	5
TAP	34	96	4
TAP	34	96	6
TAP	34	144	5
TAP	34	192	3
TAP	34	192	4
TAP	34	240	2
TAP	34	288	1
TAP	34	288	3
TAP	34	336	2
TAP	35	0	3
TAP	35	0	4
TAP	35	48	5
TAP	35	72	4
TAP	35	96	6
TAP	35	144	2
TAP	35	168	3
TAP	35	192	1
XTP	35	288	0
XST	35	288	7
SCL	35	288	7	96	144	2
BRK	36	0	1
TAP	36	96	1
HLD	36	192	0	72
TAP	36	264	7
TAP	36	288	0
TAP	36	336	6
HLD	37	0	6	128
TAP	37	96	4
TAP	37	128	4
TAP	37	160	5
TAP	37	192	3
STR	37	288	0
SCR	37	288	0	96	144	5
TAP	37	288	4
TAP	38	0	6
TAP	38	96	6
HLD	38	192	7	72
TAP	38	264	0
TAP	38	288	7
TAP	38	336	1
HLD	39	0	1	128
TAP	39	96	3
TAP	39	128	3
TAP	39	160	2
STR	39	192	4
SI_	39	192	4	96	48	7
BRK	39	288	3
TAP	40	0	0
TAP	40	0	1
TAP	40	48	1
TAP	40	96	1
TAP	40	96	4
TAP	40	144	1
TAP	40	192	1
TAP	40	192	7
TAP	40	240	1
TAP	40	288	1
TAP	40	288	3
TAP	40	336	1
TAP	41	0	1
TAP	41	0	6
TAP	41	48	6
TAP	41	96	4
TAP	41	96	6
TAP	41	144	6
TAP	41	192	6
TAP	41	192	7
TAP	41	240	6
TAP	41	288	2
TAP	41	288	6
TAP	42	0	5
TAP	42	24	3
TAP	42	48	5
TAP	42	72	3
TAP	42	96	4
TAP	42	120	2
TAP	42	144	4
TAP	42	168	2
TAP	42	192	5
TAP	42	216	3
TAP	42	240	4
TAP	42	264	2
TAP	42	288	5
TAP	42	312	3
TAP	42	336	4
TAP	42	360	2
TTP	43	0	0	C	0	M1
XTP	43	96	2
XTP	43	96	5
XTP	43	128	2
XTP	43	128	5
XTP	43	160	2
XTP	43	160	5
XTP	43	192	2
XTP	43	192	5
XTP	43	240	1
XTP	43	240	6
XST	43	288	0
SI_	43	288	0	96	48	4
XTP	43	288	7
BST	44	0	0
SCR	44	0	0	96	1152	0
BRK	44	0	4
TTP	44	12	0	C	1	M1
THO	48	0	0	1152	C	0	M1
STR	48	0	1
SUR	48	0	1	96	480	6
STR	50	0	6
SUL	50	0	6	96	480	5
STR	52	0	6
SLL	52	0	6	96	384	2
STR	53	0	2
SLL	53	0	2	96	384	4
STR	54	0	4
SLL	54	0	4	96	384	6
STR	55	0	6
SLL	55	0	6	96	384	0
STR	56	0	0
SLR	56	0	0	96	384	6
STR	57	0	6
SLL	57	0	6	96	384	0
STR	58	0	0
SSR	58	0	0	96	288	4
HLD	59	0	3	192
TAP	59	192	4
TAP	59	216	3
TAP	59	240	4
TAP	59	264	3
BRK	59	288	2
BRK	59	288	5
XTP	60	0	1
XTP	60	0	4
TAP	60	48	2
TAP	60	96	3
TAP	60	144	4
TAP	60	192	2
TAP	60	192	5
TAP	60	240	3
TAP	60	288	4
TAP	60	336	5
TAP	61	0	3
TAP	61	0	6
TAP	61	48	4
TAP	61	96	5
TAP	61	144	6
TAP	61	192	4
STR	61	192	7
SI_	61	192	7	96	48	5
TAP	61	240	4
TAP	61	288	7
XTP	62	0	3
XTP	62	0	6
TAP	62	48	5
TAP	62	96	4
TAP	62	144	3
TAP	62	192	2
TAP	62	192	5
TAP	62	240	4
TAP	62	288	3
TAP	62	336	2
TAP	63	0	1
TAP	63	0	4
TAP	63	48	3
TAP	63	96	2
TAP	63	144	1
STR	63	192	0
SI_	63	192	0	96	48	2
TAP	63	192	3
TAP	63	240	3
TAP	63	288	0
TTP	64	0	7	B	0	M1
TTP	64	0	7	E	0	M1
TAP	64	48	4
TAP	64	96	5
TAP	64	144	4
STR	64	192	6
SI_	64	192	6	96	48	4
TAP	64	240	4
TAP	64	288	6
TTP	65	0	0	B	0	M1
TTP	65	0	1	E	0	M1
TAP	65	48	3
TAP	65	96	2
TAP	65	144	3
STR	65	192	1
SI_	65	192	1	96	48	3
TAP	65	240	3
TAP	65	288	1
TTP	66	0	6	B	0	M1
TTP	66	0	6	E	0	M1
TAP	66	48	4
TAP	66	96	5
TAP	66	144	4
TTP	66	192	0	E	0	M1
TTP	66	192	7	B	0	M1
TAP	66	240	4
TAP	66	288	5
TAP	66	336	4
TTP	67	0	5	B	0	M1
TTP	67	0	5	E	0	M1
TTP	67	96	2	B	0	M1
TTP	67	96	3	E	0	M1
TAP	67	192	3
TAP	67	192	4
TAP	67	240	0
TAP	67	240	7
XTP	68	0	4
TAP	68	48	5
TAP	68	96	6
TAP	68	144	7
TAP	68	192	0
TAP	68	240	1
TAP	68	288	2
TAP	68	336	3
TAP	69	0	4
TAP	69	48	5
TAP	69	96	6
TAP	69	144	7
TAP	69	192	0
TAP	69	240	1
TAP	69	288	2
TAP	69	336	3
XTP	70	0	4
TAP	70	32	5
TAP	70	64	6
TAP	70	96	7
TAP	70	128	0
TAP	70	160	1
TAP	70	192	2
TAP	70	224	3
TAP	70	256	4
TAP	70	288	5
TAP	70	320	6
TAP	70	352	7
XTP	71	0	0
TAP	71	24	1
TAP	71	48	2
TAP	71	72	3
TAP	71	96	4
TAP	71	120	5
TAP	71	144	6
TAP	71	168	7
TAP	71	192	0
TAP	71	216	1
TAP	71	240	2
TAP	71	264	3
TAP	71	288	4
TAP	71	312	5
TAP	71	336	6
TAP	71	360	7
XTP	72	0	0
TAP	72	16	1
TAP	72	32	2
TAP	72	48	3
TAP	72	64	4
TAP	72	80	5
TAP	72	96	6
TAP	72	112	7
TAP	72	128	0
TAP	72	144	1
TAP	72	160	2
TAP	72	176	3
TAP	72	192	4
TAP	72	208	5
TAP	72	224	6
TAP	72	240	7
TAP	72	256	0
TAP	72	272	1
TAP	72	288	2
TAP	72	304	3
TAP	72	320	4
TAP	72	336	5
TAP	72	352	6
TAP	72	368	7
XHO	73	0	0	0
HLD	73	12	1	0
HLD	73	24	2	0
HLD	73	36	3	0
HLD	73	48	4	0
HLD	73	60	5	0
HLD	73	72	6	0
HLD	73	84	7	0
HLD	73	96	0	0
HLD	73	108	1	0
HLD	73	120	2	0
HLD	73	132	3	0
HLD	73	144	4	0
HLD	73	156	5	0
HLD	73	168	6	0
HLD	73	180	7	0
HLD	73	192	0	0
HLD	73	204	1	0
HLD	73	216	2	0
HLD	73	228	3	0
HLD	73	240	4	0
HLD	73	252	5	0
HLD	73	264	6	0
HLD	73	276	7	0
HLD	73	288	0	0
HLD	73	300	1	0
HLD	73	312	2	0
HLD	73	324	3	0
HLD	73	336	4	0
HLD	73	348	5	0
HLD	73	360	6	0
HLD	73	372	7	0
XST	74	0	0
SF_	74	0	0	96	48	4
BRK	74	96	0
TTP	74	100	0	B	0	M1
TTP	74	104	0	C	1	M1
TTP	74	108	3	B	0	M1
TTP	74	108	4	B	0	M1
TTP	74	108	5	B	0	M1
BRK	75	288	0
BRK	75	288	7
STR	76	0	6
SI_	76	0	6	96	48	0
STR	76	48	1
SI_	76	48	1	96	48	3
STR	76	96	6
SLL	76	96	6	96	96	0
TAP	76	144	1
TAP	76	192	6
TAP	76	240	2
STR	76	288	1
SI_	76	288	1	96	48	5
XTP	77	0	1
STR	77	0	3
SI_	77	0	3	96	48	7
STR	77	96	0
SCL	77	96	0	96	48	5
SCR	77	96	0	96	48	3
XTP	77	96	3
XST	77	192	0
SF_	77	192	0	96	48	4
XTP	77	288	0
STR	78	0	1
SI_	78	0	1	96	48	7
STR	78	48	6
SI_	78	48	6	96	48	4
STR	78	96	1
SLR	78	96	1	96	96	7
TAP	78	144	6
TAP	78	192	1
TAP	78	240	5
STR	78	288	6
SI_	78	288	6	96	48	2
STR	79	0	1
SI_	79	0	1	96	48	5
XTP	79	0	6
XTP	79	96	1
STR	79	96	7
SF_	79	96	7	96	48	3
XTP	79	192	7
BRK	79	288	1
BRK	79	288	5
STR	80	0	6
SI_	80	0	6	96	48	0
STR	80	48	1
SI_	80	48	1	96	48	3
STR	80	96	6
SLL	80	96	6	96	96	0
TAP	80	144	1
TAP	80	192	6
TAP	80	240	0
STR	80	288	1
SI_	80	288	1	96	48	5
STR	81	0	1
SI_	81	0	1	96	48	4
STR	81	0	6
SI_	81	0	6	96	48	0
TAP	81	96	1
TAP	81	96	6
TAP	81	192	3
TAP	81	192	7
TAP	81	240	5
TAP	81	264	4
TAP	81	288	5
TAP	81	336	3
TAP	82	0	3
TAP	82	0	4
TAP	82	48	2
TAP	82	72	3
TAP	82	96	1
TAP	82	144	5
TAP	82	168	4
XHO	82	192	7	54
XHO	82	264	1	54
XHO	82	264	3	54
XHO	82	336	4	54
XHO	82	336	6	54
XHO	83	24	0	54
XHO	83	24	2	54
XHO	83	96	5	54
XHO	83	96	7	54
XHO	83	168	3	54
XHO	83	168	4	54
TAP	83	240	0
TAP	83	240	7
TAP	83	288	1
TAP	83	288	6
TAP	83	336	2
TAP	83	336	5
STR	84	0	3
SI_	84	0	3	96	48	0
STR	84	0	4
SI_	84	0	4	96	48	7
BRK	84	96	3
BRK	84	96	4
TAP	84	192	1
TAP	84	192	6
TAP	84	240	5
TAP	84	264	4
TAP	84	288	7
TAP	84	336	2
TAP	84	360	3
STR	85	0	0
SI_	85	0	0	96	48	5
STR	85	96	0
SI_	85	96	0	96	48	3
STR	85	96	6
SI_	85	96	6	96	48	2
TAP	85	192	0
TAP	85	192	6
TAP	85	288	0
TAP	85	288	5
HLD	86	0	5	48
XTP	86	48	7
TAP	86	60	0
TAP	86	72	1
TAP	86	84	2
TAP	86	96	3
HLD	86	144	6	48
XTP	86	192	0
TAP	86	204	1
TAP	86	216	2
TAP	86	228	3
TAP	86	240	4
HLD	86	288	7	48
XTP	86	336	1
TAP	86	348	2
TAP	86	360	3
TAP	86	372	4
XTP	87	0	5
BRK	87	0	6
XTP	87	72	0
XTP	87	72	7
XTP	87	132	1
XTP	87	132	3
XTP	87	192	4
BRK	87	192	6
XTP	87	264	0
XTP	87	264	7
XTP	87	324	3
XTP	87	324	4
BRK	88	0	1
BRK	88	0	6
TAP	88	96	6
TAP	88	120	4
TAP	88	144	6
TAP	88	168	4
TAP	88	192	5
TAP	88	216	3
TAP	88	240	5
TAP	88	264	3
TAP	88	288	6
TAP	88	312	4
TAP	88	336	5
TAP	88	360	3
BRK	89	0	6
TAP	89	96	1
TAP	89	120	3
TAP	89	144	1
TAP	89	168	3
TAP	89	192	2
TAP	89	216	4
TAP	89	240	2
TAP	89	264	4
TAP	89	288	1
TAP	89	312	3
TAP	89	336	2
TAP	89	360	4
BRK	90	0	1
TAP	90	96	3
TAP	90	96	4
TAP	90	144	3
TAP	90	144	4
TAP	90	192	2
TAP	90	192	5
TAP	90	240	2
TAP	90	240	5
TAP	90	288	1
TAP	90	288	6
TAP	90	336	1
TAP	90	336	6
TAP	91	0	7
TAP	91	24	0
TAP	91	48	7
TAP	91	72	0
TAP	91	96	7
TAP	91	120	0
TAP	91	144	7
TAP	91	168	0
TTP	91	192	7	E	0	M1
TTP	91	204	6	E	0	M1
TTP	91	216	5	E	0	M1
TTP	91	228	4	E	0	M1
TTP	91	240	3	E	0	M1
TTP	91	252	2	E	0	M1
TTP	91	264	1	E	0	M1
TTP	91	276	0	E	0	M1
TTP	91	288	0	C	1	M1
XHO	92	0	0	48
XTP	92	0	7
HLD	92	96	0	48
STR	92	96	6
SUL	92	96	6	96	96	1
HLD	92	192	0	48
HLD	92	288	0	48
HLD	93	0	0	48
STR	93	0	2
SXL	93	0	2	96	144	6
HLD	93	96	0	48
HLD	93	192	0	48
HLD	93	288	0	48
TAP	94	0	0
HLD	94	0	7	48
STR	94	96	1
SUR	94	96	1	96	96	6
HLD	94	96	7	48
HLD	94	192	7	48
HLD	94	288	7	48
STR	95	0	5
SXR	95	0	5	96	144	1
HLD	95	0	7	48
HLD	95	96	7	48
HLD	95	192	7	48
HLD	95	288	7	48
HLD	96	0	0	48
STR	96	0	7
SI_	96	0	7	96	48	3
HLD	96	96	0	48
TAP	96	96	7
HLD	96	192	0	48
STR	96	192	2
SI_	96	192	2	96	48	6
HLD	96	288	0	48
TAP	96	288	2
HLD	97	0	0	48
STR	97	0	5
SI_	97	0	5	96	48	1
HLD	97	96	0	48
TAP	97	96	5
HLD	97	192	0	48
STR	97	192	3
SI_	97	192	3	96	48	7
HLD	97	288	0	48
TAP	97	288	3
XTP	98	0	1
XTP	98	0	6
TAP	98	48	5
TAP	98	72	4
HLD	98	96	6	48
TAP	98	144	2
TAP	98	168	3
HLD	98	192	1	48
TAP	98	240	5
TAP	98	264	4
HLD	98	288	6	48
TAP	98	336	2
TAP	98	360	3
HLD	99	0	0	48
TAP	99	48	5
TAP	99	72	4
HLD	99	96	7	48
TAP	99	144	2
TAP	99	168	3
TAP	99	192	1
TAP	99	240	0
TAP	99	240	7
BRK	99	288	1
BRK	99	288	6
STR	100	0	5
SI_	100	0	5	96	48	3
STR	100	48	2
SI_	100	48	2	96	48	0
STR	100	96	5
SLR	100	96	5	96	96	3
TAP	100	144	2
TAP	100	192	5
TAP	100	240	1
STR	100	288	2
SI_	100	288	2	96	48	6
STR	101	0	2
SI_	101	0	2	96	48	7
STR	101	0	5
SI_	101	0	5	96	48	3
TAP	101	96	2
TAP	101	96	5
TAP	101	192	0
TAP	101	192	4
TAP	101	288	2
TAP	101	288	6
HLD	102	0	2	48
XTP	102	48	0
TAP	102	60	7
TAP	102	72	6
TAP	102	84	5
TAP	102	96	4
HLD	102	144	1	48
XTP	102	192	7
TAP	102	204	6
TAP	102	216	5
TAP	102	228	4
TAP	102	240	3
HLD	102	288	0	48
XTP	102	336	6
TAP	102	348	5
TAP	102	360	4
TAP	102	372	3
BRK	103	0	1
XTP	103	0	2
XTP	103	72	0
XTP	103	72	7
XTP	103	132	4
XTP	103	132	6
BRK	103	192	1
XTP	103	192	3
XTP	103	264	0
XTP	103	264	7
XTP	103	324	3
XTP	103	324	4
BRK	104	0	1
BRK	104	0	6
TAP	104	96	5
TAP	104	120	0
TAP	104	144	6
TAP	104	168	7
TAP	104	192	5
TAP	104	216	0
TAP	104	240	6
TAP	104	264	7
TAP	104	288	5
TAP	104	312	0
TAP	104	336	6
TAP	104	360	7
BRK	105	0	5
TAP	105	96	2
TAP	105	120	7
TAP	105	144	1
TAP	105	168	0
TAP	105	192	2
TAP	105	216	7
TAP	105	240	1
TAP	105	264	0
HLD	105	288	2	48
TAP	105	336	4
TAP	105	360	3
TAP	106	0	5
TAP	106	24	4
TAP	106	48	6
TAP	106	72	3
TAP	106	96	7
TAP	106	120	2
TAP	106	144	0
TAP	106	168	1
TAP	106	192	3
TAP	106	216	2
TAP	106	240	4
TAP	106	264	1
TAP	106	288	5
TAP	106	312	0
TAP	106	336	6
TAP	106	360	7
TAP	107	0	6
TAP	107	24	5
TAP	107	48	4
TAP	107	72	3
TAP	107	96	0
TAP	107	120	1
TAP	107	144	2
TAP	107	168	3
TAP	107	192	6
TAP	107	204	5
TAP	107	216	4
TAP	107	228	3
TAP	107	240	2
TAP	107	252	1
TAP	107	264	0
TAP	107	276	7
STR	107	288	2
SV_	107	288	2	96	48	7
STR	107	288	6
SV_	107	288	6	96	48	3
XTP	108	0	2
XTP	108	0	6
BST	108	96	0
SUL	108	96	0	96	672	6
BST	108	96	4
SUL	108	96	4	96	672	2
TAP	108	108	1
TAP	108	108	5
TAP	108	120	2
TAP	108	120	6
TAP	108	132	3
TAP	108	132	7

T_REC_TAP	481
T_REC_BRK	31
T_REC_XTP	89
T_REC_HLD	103
T_REC_XHO	14
T_REC_STR	65
T_REC_BST	3
T_REC_XST	5
T_REC_TTP	66
T_REC_THO	1
T_REC_SLD	74
T_REC_ALL	932
T_NUM_TAP	706
T_NUM_BRK	34
T_NUM_HLD	118
T_NUM_SLD	74
T_NUM_ALL	932
T_JUDGE_TAP	740
T_JUDGE_HLD	209
T_JUDGE_SLD	74
T_JUDGE_ALL	1023
TTM_EACHPAIRS	143
TTM_SCR_TAP	353000
TTM_SCR_BRK	88400
TTM_SCR_HLD	118000
TTM_SCR_SLD	111000
TTM_SCR_ALL	670400
TTM_SCR_S	647000
TTM_SCR_SS	667000
TTM_RAT_ACV	10050

