VERSION	0.00.00	1.03.00
FES_MODE	0
BPM_DEF	192.000	192.000	192.000	192.000
MET_DEF	4	4
RESOLUTION	384
CLK_DEF	384
COMPATIBLE_CODE	MA2

BPM	0	0	192.000
MET	0	0	4	4

BST	2	0	3
SCL	2	0	3	96	1248	4
BRK	2	0	4
TAP	6	0	2
HLD	6	0	5	384
TAP	6	144	4
TAP	6	192	4
HLD	7	0	2	384
TAP	7	144	3
TAP	7	192	3
HLD	8	0	5	768
TAP	8	144	4
TAP	8	192	4
XHO	9	0	1	384
XTP	11	192	2
XTP	11	192	5
XTP	11	288	3
XTP	11	312	4
XTP	11	336	3
XTP	11	360	4
BRK	12	0	3
XHO	12	144	2	144
HLD	12	288	4	144
HLD	13	48	3	144
TAP	13	192	5
TAP	13	288	4
TAP	13	288	5
XTP	14	0	3
XTP	14	0	6
TAP	14	96	4
HLD	14	96	5	144
HLD	14	240	3	144
HLD	15	0	4	144
HLD	15	144	2	96
TAP	15	240	3
TAP	15	288	2
TAP	15	288	3
TAP	16	0	2
TAP	16	48	2
TAP	16	96	4
HLD	16	192	3	96
HLD	16	192	5	96
TAP	17	0	6
TAP	17	48	6
TAP	17	96	4
HLD	17	192	3	96
HLD	17	192	5	96
XTP	18	0	2
XTP	18	0	4
XTP	18	48	2
XTP	18	48	4
XTP	18	192	3
XTP	18	192	5
XTP	18	240	3
XTP	18	240	5
HLD	19	0	6	96
HLD	19	96	4	96
HLD	19	192	3	96
XTP	19	288	1
TAP	20	0	0
TAP	20	0	7
TAP	20	96	1
TAP	20	96	6
TAP	20	192	2
TAP	20	240	2
TAP	20	288	4
TAP	20	336	4
TAP	21	0	3
TAP	21	48	3
TAP	21	96	5
TAP	21	144	5
TAP	21	192	4
TAP	21	240	4
TAP	21	288	6
TAP	21	336	6
TAP	22	0	3
TAP	22	0	6
TAP	22	96	4
TAP	22	96	5
TAP	22	192	5
TAP	22	240	5
TAP	22	288	3
TAP	22	336	3
TAP	23	0	4
TAP	23	48	4
TAP	23	96	2
TAP	23	144	2
TAP	23	192	3
TAP	23	240	3
TAP	23	288	1
TAP	23	336	1
TAP	24	0	1
HLD	24	0	5	96
HLD	24	96	7	96
HLD	24	192	0	96
TAP	24	288	2
TAP	25	0	7
TAP	25	48	7
TAP	25	96	1
TAP	25	144	1
TAP	25	192	5
TAP	25	240	5
TAP	25	288	2
STR	25	288	4
SF_	25	288	4	96	192	0
XTP	26	288	2
XTP	26	288	6
XTP	27	0	5
XTP	27	24	4
XTP	27	48	5
XTP	27	72	4
XTP	27	96	5
XTP	27	144	2
XTP	27	168	3
XTP	27	192	2
XTP	27	216	3
XTP	27	240	2
BRK	27	288	1
BRK	27	288	4
TAP	28	0	5
TAP	28	96	3
HLD	28	96	7	96
TAP	28	192	4
TAP	28	240	4
TAP	28	288	3
TAP	28	288	5
TAP	29	0	2
HLD	29	96	0	96
TAP	29	96	4
TAP	29	192	3
TAP	29	240	3
TAP	29	288	2
TAP	29	288	4
TAP	30	0	5
TAP	30	96	3
HLD	30	96	7	96
TAP	30	192	4
TAP	30	240	4
TAP	30	288	3
TAP	30	288	5
TAP	31	0	2
TAP	31	0	4
TAP	31	96	0
TAP	31	96	7
TAP	31	192	3
TAP	31	192	5
TAP	31	288	3
TAP	31	288	5
STR	32	0	6
SCR	32	0	6	96	96	1
TAP	32	96	2
TAP	32	144	2
HLD	32	192	2	96
TAP	32	288	3
STR	33	0	1
SCL	33	0	1	96	96	6
TAP	33	0	4
TAP	33	96	5
TAP	33	144	5
HLD	33	192	5	96
TAP	33	288	4
TAP	34	0	6
TAP	34	48	6
TAP	34	96	4
TAP	34	144	5
TAP	34	192	2
TAP	34	240	2
TAP	34	288	3
TAP	34	336	1
TAP	35	0	1
TAP	35	0	4
TAP	35	96	3
TAP	35	96	6
XTP	35	192	0
XTP	35	192	7
XTP	35	240	0
XTP	35	240	7
XTP	35	288	1
XTP	35	288	6
TAP	36	0	2
HLD	36	0	5	96
TAP	36	96	4
TAP	36	192	6
TAP	36	240	6
TAP	36	288	6
TAP	36	288	7
TAP	37	0	0
TAP	37	0	1
TAP	37	96	2
TAP	37	96	3
TAP	37	144	1
TAP	37	144	4
TAP	37	192	0
TAP	37	192	5
TAP	37	288	0
HLD	37	288	5	96
TAP	38	0	4
TAP	38	96	2
TAP	38	96	3
TAP	38	192	1
TAP	38	240	1
TAP	38	288	0
TAP	38	288	1
TAP	39	0	6
TAP	39	0	7
TAP	39	96	4
TAP	39	96	5
TAP	39	144	3
TAP	39	144	6
TAP	39	192	2
TAP	39	192	7
BRK	39	288	0
TAP	40	0	1
TAP	40	0	3
TAP	40	96	4
TAP	40	96	5
TAP	40	192	6
TAP	40	192	7
TAP	40	240	0
TAP	40	240	5
TAP	40	288	1
HLD	40	288	4	96
TAP	41	0	3
TAP	41	96	2
TAP	41	96	3
TAP	41	192	0
TAP	41	192	1
TAP	41	240	2
TAP	41	240	7
TAP	41	288	3
TAP	41	288	6
TAP	42	0	7
TAP	42	48	7
TAP	42	96	0
TAP	42	144	6
TAP	42	192	2
TAP	42	240	2
TAP	42	288	4
TAP	42	336	3
XTP	43	0	2
XTP	43	0	4
XTP	43	96	5
XTP	43	128	5
XTP	43	160	4
XTP	43	192	3
XTP	43	192	6
XTP	43	240	2
XTP	43	240	7
XST	43	288	0
SCL	43	288	0	96	768	2
XTP	43	288	1
TTP	44	0	0	C	1	M1
HLD	46	0	1	192
HLD	47	0	2	192
STR	48	0	1
SCL	48	0	1	96	672	3
TAP	48	0	3
HLD	50	0	7	384
STR	51	0	3
SSR	51	0	3	96	288	7
HLD	52	0	6	768
TTP	53	0	0	C	0	M1
TTP	53	192	2	B	0	M1
HLD	54	0	1	768
TTP	55	0	0	C	0	M1
TTP	55	192	5	B	0	M1
HLD	56	0	7	384
HLD	57	0	6	384
HLD	58	0	5	384
HLD	59	0	4	192
TAP	59	192	3
TAP	59	288	2
TAP	59	288	4
TAP	60	0	1
TAP	60	48	1
TAP	60	96	3
TAP	60	144	3
TAP	60	192	2
TAP	60	240	2
TAP	60	288	4
TAP	60	336	4
TAP	61	0	3
TAP	61	48	3
TAP	61	96	5
TAP	61	144	5
TAP	61	192	4
TAP	61	240	4
TAP	61	288	4
TAP	61	288	5
TAP	62	0	6
TAP	62	48	6
TAP	62	96	4
TAP	62	144	4
TAP	62	192	5
TAP	62	240	5
TAP	62	288	3
TAP	62	336	3
TAP	63	0	4
TAP	63	48	4
TAP	63	96	2
TAP	63	144	2
TAP	63	192	3
TAP	63	240	3
TAP	63	288	1
TAP	63	288	3
TAP	64	0	4
TAP	64	48	4
TAP	64	96	3
TAP	64	144	3
TAP	64	192	5
TAP	64	240	4
HLD	64	288	6	96
TAP	65	0	3
TAP	65	48	3
TAP	65	96	4
TAP	65	144	4
TAP	65	192	2
TAP	65	240	3
HLD	65	288	1	96
TAP	66	0	4
TAP	66	48	4
TAP	66	96	2
TAP	66	96	4
TAP	66	192	3
TAP	66	240	3
TAP	66	288	3
TAP	66	288	5
TAP	67	0	4
TAP	67	0	6
TAP	67	96	1
TAP	67	96	3
TAP	67	192	0
TAP	67	192	7
TAP	67	240	1
TAP	67	240	6
TAP	67	288	2
STR	67	288	5
SI_	67	288	5	96	2304	2
BRK	68	0	3
TAP	69	0	1
TAP	69	192	1
TAP	70	0	0
TAP	70	96	0
TAP	70	192	0
TAP	70	288	0
TAP	71	0	0
TAP	71	96	0
TAP	71	192	0
TAP	71	288	0
TAP	72	0	7
TAP	72	48	7
TAP	72	96	7
TAP	72	144	7
TAP	72	192	7
TAP	72	240	7
TAP	72	288	7
TAP	72	336	7
TAP	73	0	7
TAP	73	48	7
TAP	73	96	7
TAP	73	144	7
TAP	73	192	7
TAP	73	240	7
TAP	73	288	7
TAP	73	336	7
STR	74	0	7
SI_	74	0	7	96	48	3
XTP	74	96	7
TTP	74	102	0	C	1	M1
TAP	75	288	3
TAP	75	288	4
BRK	76	0	0
BRK	76	0	5
TAP	76	96	6
TAP	76	96	7
TAP	76	144	5
TAP	76	192	4
TAP	76	240	3
STR	76	288	2
SI_	76	288	2	96	48	6
BST	77	0	3
SI_	77	0	3	96	48	7
BST	77	96	1
SI_	77	96	1	96	48	5
BST	77	192	0
SI_	77	192	0	96	48	4
BRK	77	288	2
BRK	78	0	0
BRK	78	0	5
TAP	78	96	6
TAP	78	96	7
TAP	78	144	5
TAP	78	192	4
TAP	78	240	3
STR	78	288	2
SI_	78	288	2	96	48	6
BST	79	0	3
SI_	79	0	3	96	48	7
BST	79	96	1
SI_	79	96	1	96	48	5
BRK	79	192	6
XTP	79	288	0
XTP	79	288	4
TAP	80	0	2
TAP	80	0	7
TAP	80	96	0
TAP	80	96	1
TAP	80	144	2
TAP	80	192	3
TAP	80	240	4
TAP	80	288	5
TAP	80	336	6
BST	81	0	0
SI_	81	0	0	96	48	4
BST	81	0	7
SI_	81	0	7	96	48	3
TAP	81	192	1
TAP	81	192	6
TAP	81	240	5
TAP	81	264	4
TAP	81	288	5
TAP	81	336	2
TAP	81	360	3
TAP	82	0	2
TAP	82	48	1
TAP	82	72	0
TAP	82	96	1
TAP	82	144	0
TAP	82	144	1
XTP	82	192	0
XHO	82	192	1	72
XHO	82	264	3	72
XHO	82	336	4	72
XHO	83	24	6	72
XTP	83	96	7
XTP	83	168	0
XTP	83	168	5
TAP	83	240	1
TAP	83	288	1
TAP	83	336	3
STR	84	0	4
SI_	84	0	4	96	48	0
BRK	84	96	2
TAP	84	192	1
TAP	84	240	1
STR	84	288	1
SI_	84	288	1	96	48	5
STR	85	0	0
SI_	85	0	0	96	48	4
STR	85	96	7
SI_	85	96	7	96	48	3
STR	85	192	6
SI_	85	192	6	96	48	2
XTP	85	288	1
XTP	86	0	0
XTP	86	0	4
TAP	86	96	2
TAP	86	96	3
STR	86	144	2
SCR	86	144	2	96	48	5
XTP	86	144	3
XHO	86	240	6	96
XTP	86	336	7
BRK	87	0	6
BRK	87	0	7
XTP	87	64	4
XTP	87	64	5
XTP	87	128	1
XTP	87	128	3
BRK	87	192	0
BRK	87	192	7
XTP	87	256	4
XTP	87	256	6
XTP	87	320	2
XTP	87	320	3
BRK	88	0	1
BRK	88	0	4
TAP	88	96	2
TAP	88	120	3
TAP	88	144	2
TAP	88	192	5
TAP	88	216	4
TAP	88	240	5
TAP	88	288	6
TAP	88	312	7
TAP	88	336	6
BRK	89	0	0
BRK	89	0	5
TAP	89	96	5
TAP	89	120	4
TAP	89	144	5
TAP	89	192	2
TAP	89	216	3
TAP	89	240	2
TAP	89	288	1
TAP	89	312	0
TAP	89	336	1
BRK	90	0	2
BRK	90	0	7
TAP	90	96	0
TAP	90	144	0
TAP	90	192	0
TAP	90	192	7
TAP	90	240	0
TAP	90	240	7
TAP	90	288	1
TAP	90	288	6
TAP	90	336	2
TAP	90	336	5
STR	91	0	3
SI_	91	0	3	96	48	7
STR	91	0	4
SI_	91	0	4	96	48	0
XTP	91	192	1
XTP	91	192	6
BST	91	288	2
SCL	91	288	2	96	120	7
BRK	91	288	5
TAP	92	0	4
TAP	92	96	4
XTP	92	192	0
TAP	92	240	0
TAP	92	288	1
STR	92	288	5
SCR	92	288	5	96	120	0
TAP	93	0	2
TAP	93	96	2
XTP	93	192	7
TAP	93	240	7
STR	93	288	1
SCL	93	288	1	96	120	6
TAP	93	288	6
TAP	94	0	5
TAP	94	96	5
XTP	94	192	0
TAP	94	240	0
TAP	94	288	1
STR	94	288	7
SUL	94	288	7	96	120	3
TAP	95	0	2
TAP	95	96	2
TAP	95	192	1
TAP	95	192	4
STR	95	288	0
SUR	95	288	0	96	120	5
TAP	96	0	6
TAP	96	96	6
TAP	96	192	6
TAP	96	192	7
TAP	96	240	6
TAP	96	240	7
STR	96	288	0
SUR	96	288	0	96	120	5
TAP	96	288	5
TAP	97	0	6
TAP	97	96	6
TAP	97	192	6
TAP	97	192	7
TAP	97	240	6
TAP	97	240	7
TAP	97	288	0
STR	97	288	5
SI_	97	288	5	96	48	0
BRK	98	0	1
STR	98	96	2
SI_	98	96	2	96	48	7
TAP	98	96	7
BRK	98	192	6
STR	98	288	0
SI_	98	288	0	96	48	4
TAP	98	288	5
BRK	99	0	4
TAP	99	96	5
TAP	99	192	6
TAP	99	192	7
TAP	99	240	0
TAP	99	240	5
XTP	99	288	1
XTP	99	288	4
BRK	100	0	3
BRK	100	0	7
TAP	100	96	0
TAP	100	96	1
TAP	100	144	2
TAP	100	192	3
TAP	100	240	5
STR	100	288	6
SI_	100	288	6	96	48	2
BST	101	0	7
SI_	101	0	7	96	48	3
BST	101	96	5
SI_	101	96	5	96	48	1
BST	101	192	4
SI_	101	192	4	96	48	0
BRK	101	288	7
XTP	102	0	3
XTP	102	0	6
XTP	102	96	2
XTP	102	96	4
XTP	102	144	2
XTP	102	144	4
TAP	102	192	1
TAP	102	240	0
TAP	102	288	7
TAP	102	336	6
BRK	103	0	0
BRK	103	0	5
XTP	103	64	1
XTP	103	64	3
XTP	103	128	4
XTP	103	128	5
BRK	103	192	1
BRK	103	192	7
XTP	103	256	4
XTP	103	256	6
XTP	103	320	2
XTP	103	320	3
BRK	104	0	1
BRK	104	0	4
STR	104	96	0
SI_	104	96	0	96	48	4
TAP	104	144	0
STR	104	192	6
SI_	104	192	6	96	48	2
TAP	104	240	6
TAP	104	288	1
TAP	104	336	1
BRK	105	0	0
BRK	105	0	3
STR	105	96	5
SI_	105	96	5	96	48	1
TAP	105	144	5
STR	105	192	3
SI_	105	192	3	96	48	7
TAP	105	240	3
TAP	105	288	6
TAP	105	336	6
BRK	106	0	0
TAP	106	48	0
TAP	106	96	0
TAP	106	144	0
BRK	106	192	0
TAP	106	216	7
TAP	106	240	0
TAP	106	264	7
TAP	106	288	0
TAP	106	312	7
TAP	106	336	0
TAP	106	360	7
XST	107	0	1
SI_	107	0	1	96	48	5
STR	107	96	4
SI_	107	96	4	96	48	0
STR	107	192	3
SI_	107	192	3	96	48	7
STR	107	288	6
SF_	107	288	6	96	48	2
BST	108	96	0
SXL	108	96	0	96	672	3
BST	108	96	4
SXL	108	96	4	96	672	7

T_REC_TAP	386
T_REC_BRK	40
T_REC_XTP	86
T_REC_HLD	38
T_REC_XHO	7
T_REC_STR	33
T_REC_BST	14
T_REC_XST	2
T_REC_TTP	6
T_REC_THO	0
T_REC_SLD	49
T_REC_ALL	661
T_NUM_TAP	513
T_NUM_BRK	54
T_NUM_HLD	45
T_NUM_SLD	49
T_NUM_ALL	661
T_JUDGE_TAP	567
T_JUDGE_HLD	186
T_JUDGE_SLD	49
T_JUDGE_ALL	802
TTM_EACHPAIRS	135
TTM_SCR_TAP	256500
TTM_SCR_BRK	140400
TTM_SCR_HLD	45000
TTM_SCR_SLD	73500
TTM_SCR_ALL	515400
TTM_SCR_S	494700
TTM_SCR_SS	510000
TTM_RAT_ACV	10105

