VERSION	0.00.00	1.03.00
FES_MODE	0
BPM_DEF	192.000	192.000	192.000	192.000
MET_DEF	4	4
RESOLUTION	384
CLK_DEF	384
COMPATIBLE_CODE	MA2

BPM	0	0	192.000
MET	0	0	4	4

THO	2	0	0	1152	C	0	L1
HLD	6	0	5	192
TAP	6	192	4
HLD	7	0	2	192
TAP	7	192	3
HLD	8	0	5	192
TAP	8	192	4
HLD	9	0	2	192
TAP	9	192	3
TAP	10	0	3
STR	10	0	4
SSL	10	0	4	96	384	0
STR	12	0	0
SXL	12	0	0	96	480	4
STR	14	0	5
SXR	14	0	5	96	480	0
TAP	16	0	1
TAP	16	96	1
TAP	16	192	0
TAP	16	192	1
TAP	17	0	6
TAP	17	96	6
TAP	17	192	6
TAP	17	192	7
TAP	18	0	1
TAP	18	96	1
TAP	18	192	0
TAP	18	192	1
TAP	19	0	7
TAP	19	96	7
TAP	19	192	0
TAP	19	192	6
TAP	20	0	5
TAP	20	96	5
TAP	20	192	6
TAP	20	288	6
TAP	21	0	7
TAP	21	96	7
TAP	21	192	0
TAP	21	192	7
TAP	22	0	1
TAP	22	96	1
TAP	22	192	2
TAP	22	288	2
TAP	23	0	3
TAP	23	96	3
TAP	23	192	2
TAP	23	192	4
TAP	24	0	5
TAP	24	96	6
TAP	24	192	7
TAP	24	288	0
TAP	25	0	1
TAP	25	0	2
TAP	25	96	3
TAP	25	96	4
TAP	25	192	5
TAP	25	192	6
STR	25	288	0
SI_	25	288	0	96	192	4
STR	25	288	7
SI_	25	288	7	96	192	3
TAP	27	0	4
TAP	27	0	5
TAP	27	48	4
TAP	27	48	5
TAP	27	96	4
TAP	27	96	5
TAP	27	192	2
TAP	27	192	3
TAP	27	240	2
TAP	27	240	3
BRK	27	288	2
BRK	27	288	3
HLD	28	0	1	96
TAP	28	96	0
TAP	28	192	0
HLD	29	0	6	96
TAP	29	96	7
TAP	29	192	7
HLD	30	0	1	96
TAP	30	96	0
TAP	30	192	0
HLD	31	0	6	96
HLD	31	0	7	96
TAP	31	192	6
TAP	31	192	7
HLD	32	0	5	96
TAP	32	96	4
TAP	32	192	4
HLD	33	0	2	96
TAP	33	96	3
TAP	33	192	3
TAP	34	0	5
TAP	34	96	4
TAP	34	96	5
TAP	34	192	2
TAP	34	288	2
TAP	34	288	3
TAP	35	0	3
TAP	35	0	4
TAP	35	96	2
TAP	35	96	5
BRK	35	192	1
BRK	35	192	6
TAP	36	0	5
TAP	36	96	5
TAP	36	192	4
TAP	36	288	4
TAP	37	0	3
TAP	37	96	3
TAP	37	192	2
TAP	37	192	4
TAP	38	0	1
TAP	38	96	1
TAP	38	192	0
TAP	38	288	0
TAP	39	0	7
TAP	39	96	7
TAP	39	192	0
TAP	39	192	7
TAP	40	0	6
TAP	40	96	7
TAP	40	192	0
TAP	40	288	1
TAP	41	0	2
TAP	41	96	3
TAP	41	192	4
TAP	41	288	3
TAP	41	288	5
TAP	42	0	6
TAP	42	48	6
TAP	42	96	6
TAP	42	192	7
TAP	42	240	7
TAP	42	288	7
TAP	43	0	0
TAP	43	0	7
TAP	43	48	0
TAP	43	48	7
TAP	43	96	0
TAP	43	96	7
BRK	43	192	1
BRK	43	192	6
THO	44	0	0	2688	C	1	L1
XST	52	0	7
SCL	52	0	7	96	384	2
STR	54	0	0
SCR	54	0	0	96	384	5
STR	56	0	6
SI_	56	0	6	96	192	2
STR	57	0	1
SI_	57	0	1	96	192	5
STR	58	0	7
SSL	58	0	7	96	384	3
TTP	60	0	3	B	0	L1
TTP	60	96	2	B	0	L1
TTP	60	192	1	B	0	L1
TTP	60	288	0	B	0	L1
TTP	61	0	7	B	0	L1
TTP	61	96	6	B	0	L1
TTP	61	192	5	B	0	L1
TTP	62	0	2	B	0	L1
TTP	62	96	1	B	0	L1
TTP	62	192	0	B	0	L1
TTP	62	288	7	B	0	L1
TTP	63	0	6	B	0	L1
TTP	63	96	5	B	0	L1
TTP	63	192	4	B	0	L1
TTP	64	0	1	E	0	L1
TTP	64	96	1	B	0	L1
TTP	64	192	7	E	0	L1
TTP	64	288	6	B	0	L1
TTP	65	0	2	B	0	L1
TTP	65	96	3	E	0	L1
TTP	65	192	5	B	0	L1
TTP	65	288	5	E	0	L1
TTP	66	0	4	E	0	L1
TTP	66	96	3	E	0	L1
TTP	66	192	2	E	0	L1
TTP	66	288	1	E	0	L1
TTP	67	0	0	E	0	L1
TTP	67	96	7	E	0	L1
TTP	67	192	6	E	0	L1
TTP	67	288	5	E	0	L1
THO	68	0	0	2400	C	1	L1
TAP	76	0	6
TAP	76	48	6
TAP	76	96	6
TAP	76	96	7
TAP	76	192	5
TAP	76	240	5
TAP	76	288	4
TAP	76	288	5
XTP	77	0	2
XTP	77	0	3
XTP	77	96	0
XTP	77	96	1
XTP	77	192	6
XTP	77	192	7
XTP	77	288	4
XTP	77	288	5
TAP	78	0	2
TAP	78	48	2
TAP	78	96	2
TAP	78	96	3
TAP	78	192	1
TAP	78	240	1
TAP	78	288	0
TAP	78	288	1
XTP	79	0	6
XTP	79	0	7
XTP	79	96	4
XTP	79	96	5
BRK	79	192	3
BRK	79	192	6
TAP	80	0	5
TAP	80	48	5
TAP	80	96	4
TAP	80	96	5
TAP	80	192	6
TAP	80	240	6
TAP	80	288	6
TAP	80	288	7
TAP	81	0	0
TAP	81	0	1
TAP	81	96	2
TAP	81	96	3
TAP	81	192	4
TAP	81	192	5
TAP	81	288	6
TAP	81	288	7
TAP	82	0	1
TAP	82	48	1
TAP	82	96	0
TAP	82	96	1
TAP	82	192	2
STR	82	192	3
SLL	82	192	3	96	288	5
TAP	84	0	5
TAP	84	48	5
TAP	84	96	4
TAP	84	96	6
TAP	84	192	2
TAP	84	240	2
TAP	84	288	1
TAP	84	288	3
TAP	85	0	0
TAP	85	96	6
TAP	85	96	7
TAP	85	192	4
TAP	85	192	5
TAP	85	288	2
TAP	85	288	3
TAP	86	0	1
TAP	86	48	1
TAP	86	96	0
TAP	86	96	1
TAP	86	192	6
TAP	86	240	6
TAP	86	288	6
TAP	86	288	7
STR	87	0	4
SI_	87	0	4	96	144	0
TAP	87	0	5
TAP	88	0	1
TAP	88	0	7
TAP	88	96	1
TAP	88	96	7
TAP	88	192	6
TAP	88	240	6
TAP	88	288	6
TAP	89	0	3
TAP	89	0	5
TAP	89	96	3
TAP	89	96	5
TAP	89	192	2
TAP	89	240	2
TAP	89	288	2
TAP	90	0	0
TAP	90	0	1
TAP	90	96	6
TAP	90	96	7
TAP	90	192	4
TAP	90	192	5
TAP	90	288	2
TAP	90	288	3
TAP	91	0	3
TAP	91	0	4
TAP	91	48	3
TAP	91	48	4
TAP	91	96	3
TAP	91	96	4
BRK	91	192	2
BRK	91	192	5
TAP	92	0	5
TAP	92	96	5
TAP	92	192	4
TAP	92	192	5
TAP	92	288	4
TAP	92	288	5
TAP	93	0	2
TAP	93	96	2
TAP	93	192	2
TAP	93	192	3
TAP	93	288	2
TAP	93	288	3
TAP	94	0	1
TAP	94	96	1
TAP	94	192	0
TAP	94	288	0
TAP	95	0	7
TAP	95	96	7
TAP	95	192	0
TAP	95	192	6
TAP	96	0	1
TAP	96	96	1
TAP	96	192	0
TAP	96	192	1
TAP	96	288	0
TAP	96	288	1
TAP	97	0	6
TAP	97	96	6
TAP	97	192	6
TAP	97	192	7
TAP	97	288	6
TAP	97	288	7
TAP	98	0	5
TAP	98	96	5
TAP	98	192	4
TAP	98	288	4
TAP	99	0	3
TAP	99	96	3
TAP	99	192	2
TAP	99	192	4
TAP	100	0	5
TAP	100	48	5
TAP	100	96	4
TAP	100	96	5
TAP	100	192	6
TAP	100	240	6
TAP	100	288	6
TAP	100	288	7
TAP	101	0	0
TAP	101	0	1
TAP	101	96	2
TAP	101	96	3
TAP	101	192	4
TAP	101	192	5
TAP	101	288	6
TAP	101	288	7
TAP	102	0	1
TAP	102	48	1
TAP	102	96	0
TAP	102	96	1
TAP	102	192	2
TAP	102	240	2
TAP	102	288	2
TAP	102	288	3
STR	103	0	4
SI_	103	0	4	96	144	0
TAP	103	0	5
TAP	104	0	6
TAP	104	96	6
TAP	104	96	7
TAP	104	192	5
TAP	104	240	5
TAP	104	288	5
TAP	105	0	3
TAP	105	96	3
TAP	105	96	4
TAP	105	192	2
TAP	105	240	2
TAP	105	288	2
TAP	106	0	1
TAP	106	96	0
TAP	106	96	1
TAP	106	192	6
TAP	106	288	6
TAP	106	288	7
TAP	107	0	4
TAP	107	0	5
TAP	107	48	4
TAP	107	48	5
TAP	107	96	4
TAP	107	96	5
TAP	107	192	2
TAP	107	192	3
TAP	107	240	2
TAP	107	240	3
TAP	107	288	2
TAP	107	288	3
BST	108	96	3
SXR	108	96	3	96	576	0
BST	108	96	4
SXL	108	96	4	96	576	7

T_REC_TAP	300
T_REC_BRK	10
T_REC_XTP	12
T_REC_HLD	11
T_REC_XHO	0
T_REC_STR	12
T_REC_BST	2
T_REC_XST	1
T_REC_TTP	30
T_REC_THO	3
T_REC_SLD	15
T_REC_ALL	396
T_NUM_TAP	355
T_NUM_BRK	12
T_NUM_HLD	14
T_NUM_SLD	15
T_NUM_ALL	396
T_JUDGE_TAP	367
T_JUDGE_HLD	160
T_JUDGE_SLD	15
T_JUDGE_ALL	542
TTM_EACHPAIRS	100
TTM_SCR_TAP	177500
TTM_SCR_BRK	31200
TTM_SCR_HLD	14000
TTM_SCR_SLD	22500
TTM_SCR_ALL	245200
TTM_SCR_S	236700
TTM_SCR_SS	244000
TTM_RAT_ACV	10049

