VERSION	0.00.00	1.03.00
FES_MODE	0
BPM_DEF	192.000	192.000	192.000	192.000
MET_DEF	4	4
RESOLUTION	384
CLK_DEF	384
COMPATIBLE_CODE	MA2

BPM	0	0	192.000
MET	0	0	4	4

XTP	2	0	0
TAP	3	0	0
HLD	4	0	0	384
TAP	6	0	7
TAP	7	0	7
HLD	8	0	7	384
XTP	10	0	0
XTP	10	0	7
TAP	12	0	0
TAP	13	0	0
TAP	14	0	1
TAP	15	0	1
TAP	16	0	2
TAP	17	0	2
TAP	18	0	3
TAP	18	0	4
TAP	19	0	3
TAP	19	0	4
TAP	20	0	4
TAP	20	192	4
TAP	21	0	4
TAP	22	0	5
TAP	22	192	5
TAP	23	0	5
TAP	24	0	6
TAP	24	192	6
TAP	25	0	6
TAP	26	0	7
TAP	26	192	7
BRK	27	0	0
BRK	27	0	7
HLD	28	0	7	192
TAP	29	0	7
HLD	30	0	6	192
TAP	31	0	6
HLD	32	0	5	192
TAP	33	0	5
HLD	34	0	3	192
HLD	34	0	4	192
TAP	35	0	3
TAP	35	0	4
TAP	36	0	3
TAP	36	192	3
TAP	37	0	3
TAP	37	192	3
TAP	38	0	2
TAP	38	192	2
TAP	39	0	2
TAP	40	0	1
TAP	40	192	1
TAP	41	0	1
TAP	41	192	1
TAP	42	0	0
TAP	42	192	0
TAP	43	0	0
TAP	43	0	7
BRK	44	0	0
BRK	44	0	7
TTP	48	0	0	B	0	L1
TTP	49	0	1	B	0	L1
TTP	50	0	2	B	0	L1
TTP	51	0	3	B	0	L1
TTP	52	0	4	B	0	L1
TTP	53	0	5	B	0	L1
TTP	54	0	6	B	0	L1
TTP	55	0	7	B	0	L1
TTP	56	0	0	E	0	L1
TTP	57	0	0	C	0	L1
TTP	58	0	4	E	0	L1
TTP	59	0	0	C	0	L1
STR	60	0	7
SI_	60	0	7	96	288	4
STR	62	0	3
SI_	62	0	3	96	288	0
STR	64	0	7
SI_	64	0	7	96	288	3
TAP	66	0	2
TAP	66	192	2
TAP	67	0	3
TAP	67	0	4
THO	68	0	0	2400	C	1	L1
TAP	76	0	0
TAP	76	192	0
TAP	77	0	1
TAP	77	96	1
TAP	77	192	1
TAP	78	0	2
TAP	78	192	2
TAP	79	0	3
TAP	79	96	3
TAP	79	192	3
TAP	79	192	4
TAP	80	0	4
TAP	80	192	4
TAP	81	0	5
TAP	81	96	5
TAP	81	192	5
TAP	82	0	6
HLD	82	192	7	384
TAP	84	0	7
TAP	84	192	7
TAP	85	0	6
TAP	85	96	6
TAP	85	192	6
TAP	86	0	5
TAP	86	192	5
TAP	87	0	4
TAP	87	96	4
TAP	87	192	3
TAP	87	192	4
TAP	88	0	3
TAP	88	192	3
TAP	89	0	2
TAP	89	96	2
TAP	89	192	2
TAP	90	0	1
TAP	90	192	1
TAP	91	0	0
TAP	91	96	0
TAP	91	192	0
TAP	91	192	7
TAP	92	0	0
TAP	92	192	1
TAP	93	0	2
TAP	93	96	2
TAP	93	192	2
TAP	93	192	3
TAP	94	0	4
TAP	94	192	5
TAP	95	0	6
TAP	95	96	6
TAP	95	192	6
TAP	95	192	7
TAP	96	0	7
TAP	96	192	6
TAP	97	0	5
TAP	97	96	5
TAP	97	192	4
TAP	97	192	5
TAP	98	0	3
TAP	98	192	2
TAP	99	0	1
TAP	99	96	1
TAP	99	192	0
TAP	99	192	1
TAP	100	0	0
TAP	100	96	0
TAP	100	192	0
TAP	100	288	0
TAP	101	0	1
TAP	101	96	1
TAP	101	192	0
TAP	101	192	1
TAP	102	0	2
TAP	102	96	2
TAP	102	192	3
TAP	102	288	3
BRK	103	0	3
BRK	103	0	4
TAP	104	0	5
TAP	104	96	5
TAP	104	192	5
TAP	104	288	5
TAP	105	0	6
TAP	105	96	6
TAP	105	192	6
TAP	105	288	6
TAP	106	0	7
TAP	106	96	7
TAP	106	192	0
TAP	106	288	0
TAP	107	0	0
TAP	107	0	7
TAP	107	96	0
TAP	107	96	7
TAP	107	192	1
TAP	107	192	6
TAP	107	288	1
TAP	107	288	6
TAP	108	0	2
TAP	108	0	5
BRK	108	96	2
BRK	108	96	5

T_REC_TAP	145
T_REC_BRK	8
T_REC_XTP	3
T_REC_HLD	8
T_REC_XHO	0
T_REC_STR	3
T_REC_BST	0
T_REC_XST	0
T_REC_TTP	12
T_REC_THO	1
T_REC_SLD	3
T_REC_ALL	183
T_NUM_TAP	163
T_NUM_BRK	8
T_NUM_HLD	9
T_NUM_SLD	3
T_NUM_ALL	183
T_JUDGE_TAP	171
T_JUDGE_HLD	94
T_JUDGE_SLD	3
T_JUDGE_ALL	268
TTM_EACHPAIRS	24
TTM_SCR_TAP	81500
TTM_SCR_BRK	20800
TTM_SCR_HLD	9000
TTM_SCR_SLD	4500
TTM_SCR_ALL	115800
TTM_SCR_S	111550
TTM_SCR_SS	115000
TTM_RAT_ACV	10069

