VERSION 0.00.00 1.03.00 FES_MODE 0 BPM_DEF 210.000 210.000 210.000 210.000 MET_DEF 4 4 RESOLUTION 384 CLK_DEF 384 COMPATIBLE_CODE MA2 BPM 0 0 210.000 MET 0 0 4 4 TTP 1 360 0 E 0 M1 TTP 1 368 1 E 0 M1 TTP 1 368 7 E 0 M1 TTP 1 376 2 E 0 M1 TTP 1 376 6 E 0 M1 TTP 2 0 3 E 0 M1 TTP 2 0 5 E 0 M1 TTP 2 6 0 C 1 M1 TTP 2 8 4 E 0 M1 XTP 2 336 3 XTP 2 360 4 XHO 3 0 3 384 XTP 3 336 4 XHO 4 0 4 96 XTP 4 96 3 XTP 4 144 3 XTP 4 240 2 XTP 4 240 5 XTP 4 288 4 XTP 4 312 3 XTP 4 336 4 XTP 4 360 3 XTP 5 0 4 XHO 5 48 4 96 XHO 5 144 3 96 XTP 5 240 5 XTP 5 264 2 XTP 5 288 5 XTP 5 312 2 XTP 5 336 5 XTP 5 360 2 TTP 6 0 0 C 1 M1 XTP 7 240 4 XTP 7 240 5 XTP 7 288 4 XTP 7 288 5 XTP 7 336 4 XTP 7 336 5 TTP 8 0 0 C 1 M1 TTP 8 0 3 B 0 M1 TTP 8 0 4 B 0 M1 TTP 8 0 4 E 0 M1 TTP 8 0 5 B 0 M1 TTP 8 0 5 E 0 M1 TTP 8 0 6 B 0 M1 TTP 8 0 6 E 0 M1 XTP 9 240 2 XTP 9 240 3 XTP 9 288 2 XTP 9 288 3 XTP 9 336 2 XTP 9 336 3 TTP 10 0 0 C 1 M1 TTP 10 0 1 B 0 M1 TTP 10 0 2 B 0 M1 TTP 10 0 2 E 0 M1 TTP 10 0 3 B 0 M1 TTP 10 0 3 E 0 M1 TTP 10 0 4 B 0 M1 TTP 10 0 4 E 0 M1 XTP 11 240 3 XTP 11 240 4 XTP 11 288 3 XTP 11 288 4 XTP 11 336 3 XTP 11 336 4 TTP 12 0 0 C 1 M1 TTP 12 0 2 B 0 M1 TTP 12 0 2 E 0 M1 TTP 12 0 3 B 0 M1 TTP 12 0 3 E 0 M1 TTP 12 0 4 B 0 M1 TTP 12 0 4 E 0 M1 TTP 12 0 5 B 0 M1 TTP 12 0 5 E 0 M1 TTP 12 0 6 E 0 M1 HLD 13 0 2 96 HLD 13 0 4 96 HLD 13 144 1 96 HLD 13 144 5 96 XTP 13 288 0 XTP 13 312 6 XTP 13 336 0 XTP 13 360 6 BRK 14 0 0 TAP 14 96 1 TAP 14 96 5 TAP 14 192 2 TAP 14 240 2 TAP 14 288 4 TAP 14 336 3 TAP 15 0 5 TAP 15 48 6 TAP 15 96 7 TAP 15 144 0 TAP 15 192 1 TAP 15 240 2 TAP 15 288 3 STR 15 288 4 SI_ 15 288 4 96 48 7 STR 16 0 1 SI_ 16 0 1 96 48 4 STR 16 96 6 SI_ 16 96 6 96 48 3 TAP 16 192 2 HLD 16 240 2 96 TAP 16 336 3 TAP 17 0 1 TAP 17 0 4 STR 17 96 3 SCL 17 96 3 96 48 1 STR 17 96 6 SCL 17 96 6 96 48 4 STR 17 192 3 SI_ 17 192 3 96 1056 0 SI_ 17 192 3 96 1056 7 TAP 17 192 6 TAP 21 0 0 TAP 21 24 7 TAP 21 48 0 TAP 21 72 7 TAP 21 96 0 TAP 21 120 7 TAP 21 144 0 TAP 21 168 7 TAP 21 192 1 TAP 21 216 6 TAP 21 240 1 TAP 21 264 6 TAP 21 288 1 TAP 21 312 6 TAP 21 336 1 TAP 21 360 6 XTP 22 0 2 XTP 22 0 5 HLD 22 96 1 48 HLD 22 144 3 48 HLD 22 192 1 48 HLD 22 240 3 48 HLD 22 288 1 48 HLD 22 336 3 48 HLD 23 0 0 48 HLD 23 48 3 48 HLD 23 96 2 48 HLD 23 144 3 48 HLD 23 192 1 48 HLD 23 240 3 48 TAP 23 288 2 TAP 23 336 2 HLD 24 0 5 48 HLD 24 48 4 48 HLD 24 96 5 48 HLD 24 144 4 48 HLD 24 192 6 48 HLD 24 240 4 48 HLD 24 288 6 48 HLD 24 336 4 48 HLD 25 0 5 48 HLD 25 48 4 48 HLD 25 96 7 48 HLD 25 144 4 48 HLD 25 192 6 48 HLD 25 240 4 48 TAP 25 288 7 TAP 25 336 7 HLD 26 0 1 48 HLD 26 48 0 48 HLD 26 96 1 48 HLD 26 144 0 48 HLD 26 192 2 48 HLD 26 240 0 48 HLD 26 288 2 48 HLD 26 336 0 48 HLD 27 0 1 48 HLD 27 48 0 48 HLD 27 96 3 48 HLD 27 144 0 48 HLD 27 192 2 48 HLD 27 240 0 48 TAP 27 288 3 TAP 27 336 3 HLD 28 0 7 48 HLD 28 48 3 48 HLD 28 96 7 48 HLD 28 144 3 48 HLD 28 192 5 48 HLD 28 240 1 48 HLD 28 288 5 48 TAP 28 336 1 XTP 29 0 0 XTP 29 24 6 XTP 29 48 0 XTP 29 72 6 XTP 29 96 0 XTP 29 120 6 XTP 29 144 0 XTP 29 168 6 XTP 29 192 1 XTP 29 216 7 XTP 29 240 1 XTP 29 264 7 XTP 29 288 1 XTP 29 312 7 XTP 29 336 1 XTP 29 360 7 BRK 30 0 0 TAP 30 96 7 TAP 30 144 6 HLD 30 192 5 96 TAP 30 240 7 TAP 30 288 0 TAP 30 336 1 HLD 31 0 2 96 TAP 31 48 3 TAP 31 96 4 TAP 31 144 5 HLD 31 192 6 96 TAP 31 240 4 TAP 31 288 3 TAP 31 336 2 HLD 32 0 1 96 TAP 32 48 0 TAP 32 96 7 TAP 32 144 6 HLD 32 192 5 96 TAP 32 240 7 TAP 32 288 0 TAP 32 336 1 HLD 33 0 2 48 HLD 33 48 4 48 HLD 33 96 3 48 HLD 33 144 5 48 HLD 33 192 4 48 HLD 33 240 6 48 HLD 33 288 4 48 TAP 33 336 6 BRK 34 0 3 BRK 34 0 7 TAP 34 96 0 TAP 34 144 1 HLD 34 192 2 96 TAP 34 240 0 TAP 34 288 7 TAP 34 336 6 HLD 35 0 5 96 TAP 35 48 4 TAP 35 96 3 TAP 35 144 2 HLD 35 192 1 96 TAP 35 240 3 TAP 35 288 4 TAP 35 336 5 HLD 36 0 6 96 TAP 36 48 7 TAP 36 96 0 TAP 36 144 1 HLD 36 192 2 96 TAP 36 240 0 TAP 36 288 7 TAP 36 336 6 TAP 37 0 0 TAP 37 24 4 TAP 37 48 0 TAP 37 72 4 TAP 37 96 0 TAP 37 120 4 TAP 37 144 0 TAP 37 168 4 TAP 37 192 2 TAP 37 216 6 TAP 37 240 2 TAP 37 264 6 TAP 37 288 2 TAP 37 312 6 TAP 37 336 2 TAP 37 360 6 TTP 38 0 0 C 1 M1 XTP 39 0 7 TAP 39 32 3 TAP 39 64 5 TAP 39 96 0 TAP 39 128 4 TAP 39 160 2 TAP 39 192 7 TAP 39 224 3 TAP 39 256 5 STR 39 288 1 SXL 39 288 1 96 192 4 TAP 40 0 7 TAP 40 96 6 HLD 40 192 5 96 STR 40 288 4 SUL 40 288 4 96 192 3 TAP 41 0 5 TAP 41 96 6 STR 41 192 7 SI_ 41 192 7 96 48 3 BST 41 288 3 SXL 41 288 3 96 192 6 TAP 42 0 1 TAP 42 96 0 HLD 42 192 7 96 STR 42 288 6 SXR 42 288 6 96 192 2 TAP 43 0 7 TAP 43 96 0 HLD 43 192 1 96 STR 43 288 2 SXL 43 288 2 96 192 5 TAP 44 0 0 TAP 44 96 7 TAP 44 192 6 TAP 44 288 0 TAP 44 288 5 TAP 45 0 1 TAP 45 24 2 TAP 45 48 3 TAP 45 72 4 TAP 45 96 6 TAP 45 120 5 TAP 45 144 4 TAP 45 168 3 TAP 45 192 0 TAP 45 216 1 TAP 45 240 2 TAP 45 264 3 BST 45 288 4 SXR 45 288 4 96 192 1 XTP 45 288 5 TAP 46 0 6 TAP 46 96 7 HLD 46 192 0 96 STR 46 288 1 SXL 46 288 1 96 192 5 TAP 47 0 0 TAP 47 96 7 TAP 47 192 6 STR 47 288 5 SXL 47 288 5 96 192 1 TAP 48 0 4 TAP 48 96 3 TAP 48 192 2 STR 48 288 1 SLL 48 288 1 96 192 3 TAP 49 0 5 TAP 49 96 6 STR 49 192 7 SI_ 49 192 7 96 48 3 BST 49 288 3 SXL 49 288 3 96 192 6 TAP 50 0 1 TAP 50 96 0 TAP 50 192 7 STR 50 288 6 SXL 50 288 6 96 192 1 TAP 51 0 4 TAP 51 96 3 TAP 51 192 2 STR 51 288 1 SXR 51 288 1 96 192 4 TAP 52 0 4 TAP 52 96 5 HLD 52 192 6 192 STR 52 288 4 SCR 52 288 4 96 192 3 THO 53 192 0 192 C 1 M1 TAP 54 192 1 HLD 54 192 6 96 TAP 54 256 7 TAP 54 320 5 HLD 55 0 4 96 TAP 55 0 6 TAP 55 64 5 TAP 55 128 3 HLD 55 192 2 96 TAP 55 192 4 TAP 55 256 3 TAP 55 320 1 BRK 56 0 2 BRK 56 0 7 HLD 56 192 1 96 TAP 56 192 6 TAP 56 256 0 TAP 56 320 2 TAP 57 0 1 HLD 57 0 3 96 TAP 57 64 2 TAP 57 128 4 TAP 57 192 3 HLD 57 192 5 96 TAP 57 256 4 TAP 57 320 6 TTP 58 0 0 B 0 M1 TTP 58 0 0 C 1 M1 TTP 58 0 4 B 0 M1 STR 58 192 7 SI_ 58 192 7 96 32 4 TAP 58 256 0 TAP 58 320 1 STR 59 0 2 SI_ 59 0 2 96 32 7 TAP 59 0 6 TAP 59 64 3 TAP 59 128 4 TAP 59 192 1 STR 59 192 5 SI_ 59 192 5 96 32 2 TAP 59 256 6 TAP 59 320 7 STR 60 0 0 SI_ 60 0 0 96 32 5 TAP 60 0 4 TAP 60 64 1 TAP 60 128 2 TAP 60 192 3 TAP 60 192 6 TAP 60 256 5 TAP 60 288 3 TAP 60 320 4 XTP 61 0 1 TAP 61 32 1 TAP 61 64 3 TAP 61 96 3 TAP 61 128 2 TAP 61 160 2 XTP 61 192 6 TAP 61 224 6 TAP 61 256 4 TAP 61 288 4 TAP 61 320 5 TAP 61 352 5 HLD 62 0 0 96 TTP 62 96 0 E 0 M1 TTP 62 120 7 E 0 M1 TTP 62 144 6 E 0 M1 TTP 62 168 5 E 0 M1 TAP 62 192 1 TAP 62 216 2 TAP 62 240 3 TAP 62 264 4 TAP 62 288 7 TAP 62 312 6 TAP 62 336 5 TAP 62 360 4 TAP 63 0 0 TAP 63 24 1 TAP 63 48 2 TAP 63 72 3 TTP 63 96 0 E 0 M1 TTP 63 120 7 E 0 M1 TTP 63 144 6 E 0 M1 TTP 63 168 5 E 0 M1 TAP 63 192 1 TAP 63 216 2 TAP 63 240 3 TAP 63 264 4 TAP 63 288 0 TAP 63 312 7 TAP 63 336 6 TAP 63 360 5 TTP 64 0 0 C 1 M1 TAP 64 96 0 TAP 64 96 7 TAP 64 192 1 TAP 64 216 0 TAP 64 240 1 TAP 64 264 0 TAP 64 288 2 TAP 64 312 7 TAP 64 336 2 TAP 64 360 7 HLD 65 0 3 96 TAP 65 96 6 TAP 65 120 7 TAP 65 144 6 TAP 65 168 7 HLD 65 192 5 96 TAP 65 288 2 TAP 65 312 3 TAP 65 336 2 TAP 65 360 3 STR 66 0 1 SI_ 66 0 1 96 48 5 HLD 66 192 6 96 TTP 66 288 0 E 0 M1 TTP 66 312 1 E 0 M1 TTP 66 336 2 E 0 M1 TTP 66 360 3 E 0 M1 TAP 67 0 7 TAP 67 24 6 TAP 67 48 5 TAP 67 72 4 TAP 67 96 1 TAP 67 120 2 TAP 67 144 3 TAP 67 168 4 TAP 67 192 0 TAP 67 216 7 TAP 67 240 6 TAP 67 264 5 TAP 67 288 1 TAP 67 312 2 TAP 67 336 3 TAP 67 360 4 TTP 68 0 7 E 0 M1 TTP 68 24 6 B 0 M1 TTP 68 48 5 B 0 M1 TTP 68 72 5 E 0 M1 TTP 68 96 2 E 0 M1 TTP 68 120 1 B 0 M1 TTP 68 144 0 B 0 M1 TTP 68 168 0 E 0 M1 TTP 68 192 5 E 0 M1 TTP 68 216 4 B 0 M1 TTP 68 240 3 B 0 M1 TTP 68 264 3 E 0 M1 THO 68 288 0 96 C 0 M1 XTP 69 0 7 XTP 69 32 7 XTP 69 64 7 XTP 69 96 7 XTP 69 128 7 XTP 69 160 7 XTP 69 192 0 XTP 69 224 0 XTP 69 256 0 XTP 69 288 0 XTP 69 320 0 XTP 69 352 0 BRK 70 0 1 BRK 70 0 7 XTP 70 192 4 BRK 70 192 6 BRK 70 256 2 XTP 70 256 4 BRK 70 320 0 XTP 70 320 2 XTP 71 0 0 BRK 71 0 6 BRK 71 64 4 XTP 71 64 6 BRK 71 128 2 XTP 71 128 4 TTP 71 192 0 C 1 M1 BRK 71 192 7 XTP 72 0 1 XHO 72 0 6 768 TTP 72 336 6 E 0 M1 TTP 72 352 5 E 0 M1 TTP 72 368 4 E 0 M1 HLD 74 0 2 1152 TTP 75 0 2 B 0 M1 TTP 75 16 3 E 0 M1 TTP 75 192 5 B 0 M1 TTP 75 208 5 E 0 M1 TTP 76 0 4 B 0 M1 TTP 76 16 3 B 0 M1 THO 77 0 0 384 C 1 M1 BRK 78 0 0 TAP 79 0 5 TAP 79 24 4 TAP 79 72 4 TAP 79 96 6 TAP 79 144 6 TAP 79 192 0 TAP 79 240 0 TAP 79 288 1 TAP 79 288 4 TAP 79 336 2 TAP 79 336 5 BRK 80 0 3 HLD 80 0 6 288 TAP 80 288 3 TAP 81 0 2 TAP 81 24 3 TAP 81 72 1 TAP 81 72 4 TAP 81 120 2 TAP 81 120 5 TAP 81 168 3 TAP 81 168 6 TAP 81 216 5 TAP 81 240 4 TAP 81 288 3 TAP 81 288 6 TAP 81 336 2 TAP 81 336 7 BRK 82 0 0 XHO 82 0 1 288 TAP 82 288 4 TAP 82 336 4 TAP 83 0 2 TAP 83 24 3 TAP 83 72 5 TAP 83 96 4 TAP 83 144 3 TAP 83 144 6 TAP 83 192 2 TAP 83 192 5 TAP 83 240 1 STR 83 288 0 SF_ 83 288 0 96 192 4 TAP 83 312 7 TAP 83 336 0 TAP 83 360 7 BRK 84 0 0 HLD 85 0 3 96 HLD 85 0 5 96 HLD 85 144 2 96 HLD 85 144 6 96 TAP 85 288 1 TAP 85 312 7 TAP 85 336 1 TAP 85 360 7 BRK 86 0 1 TAP 86 96 2 TAP 86 96 6 TAP 86 192 4 TAP 86 240 4 TAP 86 288 3 TAP 86 336 2 TTP 87 0 6 E 0 M1 TTP 87 48 5 E 0 M1 TTP 87 96 3 E 0 M1 TTP 87 144 2 E 0 M1 TAP 87 192 0 TAP 87 240 0 TAP 87 288 1 TAP 88 0 2 TAP 88 0 7 TAP 88 96 0 TAP 88 96 5 TAP 88 192 2 TAP 88 240 2 TAP 88 288 4 TAP 88 336 5 TTP 89 0 2 E 0 M1 TTP 89 48 3 E 0 M1 TTP 89 96 5 E 0 M1 TTP 89 144 6 E 0 M1 TAP 89 192 7 TAP 89 240 7 TAP 89 288 6 TAP 90 0 0 TAP 90 0 4 TAP 90 96 1 TAP 90 96 3 TAP 90 192 2 TAP 90 240 2 TAP 90 288 4 TAP 90 336 3 TAP 91 0 4 TAP 91 48 3 TAP 91 96 2 TAP 91 144 1 TAP 91 192 7 TAP 91 240 6 STR 91 288 3 SI_ 91 288 3 96 48 0 TAP 91 288 5 STR 92 0 6 SI_ 92 0 6 96 48 3 STR 92 96 1 SI_ 92 96 1 96 48 4 TAP 92 192 5 HLD 92 240 5 96 TAP 92 336 4 TAP 93 0 3 TAP 93 0 6 STR 93 96 1 SCR 93 96 1 96 48 3 STR 93 96 4 SCR 93 96 4 96 48 6 TAP 93 192 1 STR 93 192 4 SI_ 93 192 4 96 1056 0 SI_ 93 192 4 96 1056 7 TAP 97 0 7 TAP 97 24 0 TAP 97 48 7 TAP 97 72 0 TAP 97 96 6 TAP 97 120 1 TAP 97 144 6 TAP 97 168 1 TAP 97 192 7 TAP 97 216 0 TAP 97 240 7 TAP 97 264 0 TAP 97 288 6 TAP 97 312 1 TAP 97 336 6 TAP 97 360 1 THO 98 0 0 192 C 1 M1 BRK 98 192 0 XTP 98 204 1 XTP 98 216 2 XTP 98 228 3 XTP 98 240 4 XTP 98 252 5 XTP 98 264 6 XTP 98 276 7 XTP 98 288 0 XTP 98 300 1 XTP 98 312 2 XTP 98 324 3 XTP 98 336 4 XTP 98 348 5 XTP 98 360 6 XTP 98 372 7 XTP 99 0 0 STR 99 96 6 SI_ 99 96 6 96 48 2 TAP 99 144 6 STR 99 192 1 SCR 99 192 1 96 48 3 TAP 99 240 1 STR 99 288 4 SCR 99 288 4 96 48 7 TAP 99 336 4 STR 100 0 0 SI_ 100 0 0 96 48 3 SI_ 100 0 0 96 48 5 TAP 100 96 0 HLD 100 192 2 32 HLD 100 192 6 32 HLD 100 256 4 32 HLD 100 256 5 32 HLD 100 320 2 32 HLD 100 320 3 32 STR 101 0 0 SCR 101 0 0 96 48 3 STR 101 0 4 SCR 101 0 4 96 48 7 TAP 101 96 0 STR 101 96 4 SUL 101 96 4 96 96 3 TTP 101 192 0 C 1 M1 TAP 102 0 1 TAP 102 0 7 TAP 102 48 2 STR 102 96 1 SI_ 102 96 1 96 48 4 TAP 102 96 3 TAP 102 144 0 STR 102 192 5 SI_ 102 192 5 96 48 0 TAP 102 240 6 TAP 102 288 0 TAP 102 336 1 STR 103 0 2 SI_ 103 0 2 96 48 5 STR 103 48 6 SI_ 103 48 6 96 48 3 STR 103 96 2 SCL 103 96 2 96 96 4 TAP 103 144 6 TAP 103 192 2 TAP 104 0 2 TAP 104 0 6 TAP 104 48 2 TAP 104 48 6 TAP 104 96 3 TAP 104 144 3 TAP 104 192 1 TAP 104 192 5 TAP 104 240 1 TAP 104 240 5 TAP 104 288 4 TAP 104 336 4 TAP 105 0 2 TAP 105 24 3 TAP 105 48 2 TAP 105 72 3 TAP 105 96 1 TAP 105 120 4 TAP 105 144 1 TAP 105 168 4 TAP 105 192 3 TAP 105 216 6 TAP 105 240 3 TAP 105 264 6 TAP 105 288 4 TAP 105 312 5 TAP 105 336 4 TAP 105 360 5 BST 106 0 3 SI_ 106 0 3 96 48 7 TAP 106 48 3 STR 106 96 6 SCL 106 96 6 96 48 3 TAP 106 144 6 STR 106 192 0 SCR 106 192 0 96 48 3 TAP 106 240 0 XTP 106 288 5 TAP 106 336 5 STR 107 0 6 SI_ 107 0 6 96 48 2 TAP 107 48 6 STR 107 96 1 SI_ 107 96 1 96 48 4 TAP 107 144 1 STR 107 192 7 SCL 107 192 7 96 48 4 TAP 107 240 7 STR 107 288 3 SCL 107 288 3 96 48 0 TAP 107 336 3 STR 108 0 7 SI_ 108 0 7 96 48 2 SI_ 108 0 7 96 48 4 TAP 108 96 7 HLD 108 192 1 32 HLD 108 192 5 32 HLD 108 256 2 32 HLD 108 256 3 32 HLD 108 320 4 32 HLD 108 320 5 32 STR 109 0 3 SCL 109 0 3 96 48 0 STR 109 0 7 SCL 109 0 7 96 48 4 STR 109 96 3 SUR 109 96 3 96 96 4 TAP 109 96 7 TTP 109 192 0 C 1 M1 TAP 110 0 1 TAP 110 0 7 TAP 110 48 2 STR 110 96 1 SI_ 110 96 1 96 48 4 TAP 110 96 3 TAP 110 144 0 STR 110 192 5 SI_ 110 192 5 96 48 0 TAP 110 240 6 TAP 110 288 0 TAP 110 336 1 STR 111 0 2 SI_ 111 0 2 96 48 5 STR 111 48 6 SI_ 111 48 6 96 48 3 STR 111 96 2 SCL 111 96 2 96 96 4 TAP 111 144 6 TAP 111 192 2 TAP 112 0 3 TAP 112 0 6 TAP 112 48 3 TAP 112 48 6 TAP 112 96 5 TAP 112 144 5 TAP 112 192 1 TAP 112 192 4 TAP 112 240 1 TAP 112 240 4 TAP 112 288 2 TAP 112 336 2 TAP 113 0 5 TAP 113 24 3 TAP 113 48 5 TAP 113 72 3 TAP 113 96 4 TAP 113 120 1 TAP 113 144 4 TAP 113 168 1 TAP 113 192 7 TAP 113 216 3 TAP 113 240 7 TAP 113 264 3 TAP 113 288 5 TAP 113 312 1 TAP 113 336 5 TAP 113 360 1 STR 114 0 4 SI_ 114 0 4 96 48 0 TAP 114 48 4 TAP 114 96 3 TAP 114 144 3 TAP 114 192 7 TAP 114 216 6 TAP 114 240 5 TAP 114 264 4 TAP 114 288 2 TAP 114 312 1 TAP 114 336 0 TAP 114 360 7 STR 115 0 5 SI_ 115 0 5 96 48 1 TAP 115 48 5 TAP 115 96 4 TAP 115 144 4 TAP 115 192 0 TAP 115 216 7 TAP 115 240 6 TAP 115 264 5 TAP 115 288 3 TAP 115 312 2 TAP 115 336 1 TAP 115 360 0 TAP 116 0 6 STR 116 0 7 SF_ 116 0 7 96 48 3 TAP 116 96 7 HLD 116 192 1 32 HLD 116 192 5 32 HLD 116 256 6 32 HLD 116 256 7 32 HLD 116 320 0 32 HLD 116 320 1 32 STR 117 0 2 SCL 117 0 2 96 48 7 STR 117 0 6 SCL 117 0 6 96 48 3 TAP 117 96 2 TAP 117 96 6 TTP 117 192 0 C 1 M1 TTP 117 192 3 B 0 M1 TTP 117 192 7 B 0 M1 STR 118 0 6 SI_ 118 0 6 96 48 4 STR 118 48 1 SI_ 118 48 1 96 48 3 TAP 118 96 6 TAP 118 144 1 STR 118 192 6 SI_ 118 192 6 96 48 2 STR 118 240 1 SI_ 118 240 1 96 48 7 TAP 118 288 6 TAP 118 336 1 STR 119 0 3 SI_ 119 0 3 96 48 7 STR 119 48 1 SI_ 119 48 1 96 48 4 TAP 119 96 3 TAP 119 144 1 STR 119 192 6 SI_ 119 192 6 96 48 3 TAP 119 240 0 TAP 119 288 6 TAP 119 336 1 TAP 120 0 2 TAP 120 24 4 TAP 120 48 2 TAP 120 72 4 TAP 120 96 3 TAP 120 120 6 TAP 120 144 3 TAP 120 168 6 TAP 120 192 0 TAP 120 216 4 TAP 120 240 0 TAP 120 264 4 TAP 120 288 1 TAP 120 312 7 TAP 120 336 1 TAP 120 360 7 BRK 121 0 1 TAP 121 12 2 TAP 121 24 3 TAP 121 36 4 TAP 121 48 5 TAP 121 60 6 TAP 121 72 7 TAP 121 84 0 TAP 121 96 1 TAP 121 108 2 TAP 121 120 3 TAP 121 132 4 TAP 121 144 5 TAP 121 156 6 TAP 121 168 7 TAP 121 180 0 TTP 121 192 0 C 1 M1 TAP 121 192 1 TTP 121 204 2 E 0 M1 TTP 121 216 3 E 0 M1 TTP 121 228 4 E 0 M1 TTP 121 240 5 E 0 M1 TTP 121 252 6 E 0 M1 TTP 121 264 7 E 0 M1 TTP 121 276 0 E 0 M1 TTP 121 288 1 E 0 M1 TTP 121 300 2 E 0 M1 TTP 121 312 3 E 0 M1 TTP 121 324 4 E 0 M1 TTP 121 336 5 E 0 M1 TTP 121 348 6 E 0 M1 TTP 121 360 7 E 0 M1 TTP 121 372 0 E 0 M1 TTP 122 0 0 C 1 M1 T_REC_TAP 499 T_REC_BRK 22 T_REC_XTP 98 T_REC_HLD 109 T_REC_XHO 6 T_REC_STR 69 T_REC_BST 4 T_REC_XST 0 T_REC_TTP 105 T_REC_THO 4 T_REC_SLD 77 T_REC_ALL 993 T_NUM_TAP 771 T_NUM_BRK 26 T_NUM_HLD 119 T_NUM_SLD 77 T_NUM_ALL 993 T_JUDGE_TAP 797 T_JUDGE_HLD 228 T_JUDGE_SLD 77 T_JUDGE_ALL 1102 TTM_EACHPAIRS 91 TTM_SCR_TAP 385500 TTM_SCR_BRK 67600 TTM_SCR_HLD 119000 TTM_SCR_SLD 115500 TTM_SCR_ALL 687600 TTM_SCR_S 664450 TTM_SCR_SS 685000 TTM_RAT_ACV 10037