VERSION	0.00.00	1.03.00
FES_MODE	0
BPM_DEF	210.000	210.000	210.000	210.000
MET_DEF	4	4
RESOLUTION	384
CLK_DEF	384
COMPATIBLE_CODE	MA2

BPM	0	0	210.000
MET	0	0	4	4

THO	2	0	0	384	C	1	M1
TTP	2	0	1	B	0	M1
TTP	2	0	2	B	0	M1
TTP	2	0	5	B	0	M1
TTP	2	0	6	B	0	M1
XTP	3	336	0
XTP	3	336	7
XTP	4	0	0
XTP	4	0	7
TAP	4	144	2
TAP	4	144	5
TAP	4	240	2
TAP	4	240	5
TAP	4	288	3
TAP	4	312	4
TAP	4	336	3
TAP	4	360	4
TAP	5	0	3
TAP	5	48	2
TAP	5	48	5
TAP	5	144	1
TAP	5	144	6
TAP	5	240	1
TAP	5	240	6
TAP	5	288	0
TAP	5	312	7
TAP	5	336	0
TAP	5	360	7
STR	6	0	0
SCR	6	0	0	96	144	3
SUL	6	0	0	96	144	3
TAP	7	144	1
TAP	7	144	6
TAP	7	240	1
TAP	7	240	6
TAP	7	288	7
TAP	7	312	0
TAP	7	336	7
TAP	7	360	0
STR	8	0	7
SV_	8	0	7	96	144	5
SLR	8	0	7	96	144	4
TAP	9	0	3
TAP	9	0	6
TAP	9	48	3
TAP	9	48	6
TAP	9	144	1
TAP	9	144	4
TAP	9	240	2
TAP	9	264	3
TAP	9	288	2
TAP	9	312	3
TAP	9	336	2
TAP	9	360	3
STR	10	0	2
SV_	10	0	2	96	144	1
SLR	10	0	2	96	144	0
TAP	11	0	1
TAP	11	0	4
TAP	11	48	1
TAP	11	48	4
TAP	11	144	3
TAP	11	144	6
TAP	11	240	5
TAP	11	264	4
TAP	11	288	5
TAP	11	312	4
TAP	11	336	5
TAP	11	360	4
TAP	12	0	5
HLD	12	96	6	144
HLD	12	240	4	144
HLD	13	0	3	144
TAP	13	144	1
TAP	13	288	0
TAP	13	312	7
TAP	13	336	0
TAP	13	360	7
TAP	14	0	0
TAP	14	96	1
TAP	14	96	6
TAP	14	192	2
TAP	14	288	3
TAP	15	0	4
TAP	15	96	5
TAP	15	192	6
STR	15	288	7
SI_	15	288	7	96	96	3
TAP	16	0	1
STR	16	96	0
SI_	16	96	0	96	96	4
TAP	16	192	6
STR	16	288	7
SI_	16	288	7	96	96	3
TAP	17	0	1
HLD	17	96	0	96
BRK	17	192	7
TTP	18	0	3	E	0	M1
TTP	18	96	4	E	0	M1
TTP	18	192	5	E	0	M1
TTP	18	288	6	E	0	M1
TTP	19	0	0	C	0	M1
TTP	19	0	7	E	0	M1
TTP	19	96	0	E	0	M1
TTP	19	192	1	E	0	M1
TTP	19	288	2	E	0	M1
TTP	20	0	0	C	0	M1
TTP	20	0	3	E	0	M1
TTP	20	96	4	E	0	M1
TTP	20	192	5	E	0	M1
TTP	20	288	6	E	0	M1
XTP	21	0	0
XTP	21	24	7
XTP	21	48	0
XTP	21	72	7
XTP	21	96	0
XTP	21	120	7
XTP	21	144	0
XTP	21	168	7
XTP	21	192	0
XTP	21	216	7
XTP	21	240	0
XTP	21	264	7
XTP	21	288	0
TAP	22	0	2
HLD	22	48	2	48
TAP	22	96	4
HLD	22	144	4	48
TAP	22	192	3
HLD	22	240	3	48
TAP	22	288	5
HLD	22	336	5	48
TAP	23	0	4
HLD	23	48	4	48
TAP	23	96	3
HLD	23	144	3	48
TAP	23	192	2
HLD	23	240	2	48
TAP	23	288	4
TAP	24	0	5
HLD	24	48	5	48
TAP	24	96	3
HLD	24	144	3	48
TAP	24	192	4
HLD	24	240	4	48
TAP	24	288	2
HLD	24	336	2	48
TAP	25	0	3
HLD	25	48	3	48
TAP	25	96	4
HLD	25	144	4	48
TAP	25	192	5
HLD	25	240	5	48
TAP	25	288	3
TAP	26	0	1
HLD	26	48	1	48
TAP	26	96	4
HLD	26	144	4	48
TAP	26	192	2
HLD	26	240	2	48
TAP	26	288	5
HLD	26	336	5	48
TAP	27	0	3
HLD	27	48	3	48
TAP	27	96	2
HLD	27	144	2	48
TAP	27	192	1
HLD	27	240	1	48
TAP	27	288	4
TAP	28	0	6
HLD	28	48	6	48
TAP	28	96	3
HLD	28	144	3	48
TAP	28	192	5
HLD	28	240	5	48
TAP	28	288	2
HLD	28	336	2	48
TAP	29	0	4
TAP	29	48	4
TAP	29	96	4
TAP	29	144	4
TAP	29	192	4
TAP	29	240	4
TAP	29	288	4
TAP	29	336	4
TAP	30	0	2
HLD	30	48	2	48
TAP	30	96	4
HLD	30	144	4	48
TAP	30	192	3
HLD	30	240	3	48
TAP	30	288	5
HLD	30	336	5	48
TAP	31	0	1
HLD	31	48	1	48
TAP	31	96	2
HLD	31	144	2	48
TAP	31	192	3
HLD	31	240	3	48
TAP	31	288	4
TAP	32	0	5
HLD	32	48	5	48
TAP	32	96	3
HLD	32	144	3	48
TAP	32	192	4
HLD	32	240	4	48
TAP	32	288	2
HLD	32	336	2	48
TAP	33	0	6
HLD	33	48	6	48
TAP	33	96	5
HLD	33	144	5	48
TAP	33	192	4
HLD	33	240	4	48
TAP	33	288	3
TAP	34	0	1
HLD	34	48	1	48
TAP	34	96	4
HLD	34	144	4	48
TAP	34	192	2
HLD	34	240	2	48
TAP	34	288	5
HLD	34	336	5	48
TAP	35	0	0
HLD	35	48	0	48
TAP	35	96	2
HLD	35	144	2	48
TAP	35	192	3
HLD	35	240	3	48
TAP	35	288	4
TAP	36	0	6
HLD	36	48	6	48
TAP	36	96	3
HLD	36	144	3	48
TAP	36	192	5
HLD	36	240	5	48
TAP	36	288	2
HLD	36	336	2	48
TAP	37	0	7
TAP	37	48	7
TAP	37	96	7
TAP	37	144	7
TAP	37	192	7
TAP	37	240	7
TAP	37	288	7
TAP	37	336	7
XTP	38	0	0
TAP	38	64	1
TAP	38	128	2
XTP	38	192	3
TAP	38	256	4
TAP	38	320	5
TAP	39	0	6
TAP	39	0	7
TAP	39	64	6
TAP	39	64	7
TAP	39	128	6
TAP	39	128	7
TAP	39	192	4
TAP	39	192	5
TAP	39	256	4
TAP	39	256	5
TAP	39	320	4
TAP	39	320	5
TAP	40	0	1
HLD	40	0	3	96
TAP	40	96	2
HLD	40	192	4	96
TAP	40	192	6
TAP	40	288	5
TAP	41	0	2
TAP	41	0	3
HLD	41	96	2	96
STR	41	96	3
SCL	41	96	3	96	96	7
BRK	41	288	3
HLD	42	0	4	96
TAP	42	0	6
TAP	42	96	5
TAP	42	192	1
HLD	42	192	3	96
TAP	42	288	2
TAP	43	0	4
TAP	43	0	5
STR	43	96	4
SCR	43	96	4	96	96	0
HLD	43	96	5	96
TAP	43	288	4
TAP	44	0	3
TAP	44	96	2
TAP	44	192	1
STR	44	288	0
SUR	44	288	0	96	240	7
BRK	45	288	0
TAP	46	0	1
HLD	46	0	3	96
TAP	46	96	2
HLD	46	192	4	96
TAP	46	192	5
TAP	46	288	6
TTP	47	0	3	B	0	M1
TTP	47	0	3	E	0	M1
TTP	47	0	4	E	0	M1
TTP	47	96	5	B	0	M1
TTP	47	96	5	E	0	M1
TTP	47	96	6	E	0	M1
TTP	47	192	0	B	0	M1
TTP	47	192	0	E	0	M1
TTP	47	192	1	E	0	M1
XTP	47	288	7
HLD	48	0	4	96
TAP	48	0	6
TAP	48	96	5
TAP	48	192	2
HLD	48	192	3	96
TAP	48	288	1
TAP	49	0	2
TAP	49	0	3
HLD	49	96	2	96
STR	49	96	3
SCL	49	96	3	96	96	7
BRK	49	288	3
HLD	50	0	4	96
TAP	50	0	6
TAP	50	96	5
TAP	50	192	2
HLD	50	192	3	96
TAP	50	288	1
TTP	51	0	4	B	0	M1
TTP	51	0	4	E	0	M1
TTP	51	0	5	E	0	M1
TTP	51	96	2	B	0	M1
TTP	51	96	2	E	0	M1
TTP	51	96	3	E	0	M1
TTP	51	192	0	E	0	M1
TTP	51	192	7	B	0	M1
TTP	51	192	7	E	0	M1
XTP	51	288	0
TAP	52	0	1
HLD	52	0	3	96
TAP	52	96	2
HLD	52	192	4	96
TAP	52	192	5
STR	52	288	6
SCR	52	288	6	96	384	5
TTP	54	0	0	C	1	M1
TAP	54	192	0
TAP	54	256	1
TAP	54	320	2
TAP	54	320	3
TAP	55	0	0
TAP	55	64	1
TAP	55	128	2
TAP	55	128	3
TAP	55	192	0
TAP	55	256	1
TAP	55	320	2
TAP	55	320	3
TAP	56	0	5
TAP	56	64	4
TAP	56	128	2
TAP	56	128	3
TAP	56	192	0
TAP	56	256	1
TAP	56	320	2
TAP	56	320	3
TAP	57	0	0
TAP	57	64	1
TAP	57	128	2
TAP	57	128	3
STR	57	192	0
SLL	57	192	0	96	96	4
SLR	57	192	0	96	96	4
TAP	58	192	7
TAP	58	256	6
TAP	58	320	4
TAP	58	320	5
TAP	59	0	7
TAP	59	64	6
TAP	59	128	4
TAP	59	128	5
TAP	59	192	7
TAP	59	256	6
TAP	59	320	4
TAP	59	320	5
TAP	60	0	2
TAP	60	64	3
TAP	60	128	4
TAP	60	128	5
TAP	60	192	7
TAP	60	256	6
TAP	60	320	4
TAP	60	320	5
HLD	61	0	2	32
HLD	61	0	4	32
HLD	61	64	2	32
HLD	61	64	4	32
HLD	61	128	2	32
HLD	61	128	4	32
HLD	61	192	3	32
HLD	61	192	5	32
HLD	61	256	3	32
HLD	61	256	5	32
HLD	61	320	3	32
HLD	61	320	5	32
TAP	62	0	2
TAP	62	48	2
TAP	62	96	4
TAP	62	144	4
TAP	62	192	3
TAP	62	240	3
TAP	62	288	5
TAP	62	336	5
HLD	63	0	1	72
HLD	63	72	2	72
TAP	63	144	3
HLD	63	192	4	72
HLD	63	264	5	72
TAP	63	336	6
TAP	64	0	0
TAP	64	48	0
TAP	64	96	7
TAP	64	144	7
TAP	64	192	1
TAP	64	240	1
TAP	64	288	6
TAP	64	336	6
TAP	65	0	3
HLD	65	0	5	96
TAP	65	96	2
HLD	65	192	2	96
TAP	65	192	4
TAP	65	288	5
TAP	66	0	6
TAP	66	48	6
TAP	66	96	3
TAP	66	144	3
TAP	66	192	5
TAP	66	240	5
TAP	66	288	4
TAP	66	336	4
HLD	67	0	6	72
HLD	67	72	5	72
TAP	67	144	4
HLD	67	192	3	72
HLD	67	264	2	72
TAP	67	336	1
STR	68	0	7
SI_	68	0	7	96	48	3
TAP	68	48	7
TAP	68	96	2
STR	68	192	0
SI_	68	192	0	96	48	4
TAP	68	240	0
TAP	68	288	5
TAP	69	0	3
TAP	69	0	6
TAP	69	64	3
TAP	69	64	6
TAP	69	128	2
TAP	69	128	5
TAP	69	192	1
TAP	69	192	4
TAP	69	256	1
TAP	69	256	4
TAP	69	320	2
TAP	69	320	5
HLD	70	0	2	96
HLD	70	0	5	96
TAP	70	192	0
TAP	70	192	7
TAP	70	256	1
TAP	70	256	3
TAP	70	320	4
TAP	70	320	6
TAP	71	0	0
TAP	71	0	7
TAP	71	64	1
TAP	71	64	3
TAP	71	128	4
TAP	71	128	6
BRK	71	192	0
BRK	71	192	7
TTP	72	0	1	E	0	M1
TTP	72	16	1	B	0	M1
TTP	72	32	2	B	0	M1
TTP	72	48	3	E	0	M1
TTP	73	0	7	E	0	M1
TTP	73	16	6	B	0	M1
TTP	73	32	5	B	0	M1
TTP	73	48	5	E	0	M1
TTP	74	0	3	E	0	M1
TTP	74	16	2	B	0	M1
TTP	74	32	1	B	0	M1
TTP	74	48	1	E	0	M1
TTP	75	0	5	E	0	M1
TTP	75	16	5	B	0	M1
TTP	75	32	6	B	0	M1
TTP	75	48	7	E	0	M1
TAP	75	192	0
STR	76	0	0
SCR	76	0	0	96	192	3
STR	77	0	4
SCR	77	0	4	96	288	3
THO	78	0	0	192	C	1	M1
TAP	79	0	0
TAP	79	0	7
TAP	79	72	0
TAP	79	72	7
TAP	79	144	0
TAP	79	144	7
TAP	79	240	3
TAP	79	240	5
TAP	79	288	3
TAP	79	288	5
STR	80	0	2
SLR	80	0	2	96	192	7
HLD	80	0	6	288
TAP	81	0	6
TAP	81	0	7
TAP	81	72	6
TAP	81	72	7
TAP	81	144	6
TAP	81	144	7
TAP	81	240	2
TAP	81	240	4
TAP	81	288	2
TAP	81	288	4
STR	82	0	1
SLL	82	0	1	96	192	4
HLD	82	0	5	288
TAP	83	0	4
TAP	83	0	5
TAP	83	72	3
TAP	83	72	4
TAP	83	144	2
TAP	83	144	3
TAP	83	240	1
TAP	83	240	4
TAP	83	288	1
TAP	83	288	4
HLD	84	0	0	288
STR	84	0	5
SLR	84	0	5	96	192	2
HLD	85	0	2	96
HLD	85	0	3	96
HLD	85	144	3	96
HLD	85	144	4	96
TAP	85	288	4
TAP	85	288	5
TAP	86	0	3
STR	86	0	6
SLR	86	0	6	96	288	4
TAP	86	96	3
TAP	86	192	3
TAP	86	288	3
TAP	87	0	2
TAP	87	96	2
TAP	87	192	2
TAP	87	192	3
TAP	87	288	2
TAP	87	288	3
STR	88	0	1
SLL	88	0	1	96	288	3
TAP	88	0	4
TAP	88	96	4
TAP	88	192	4
TAP	88	288	4
TAP	89	0	5
TAP	89	96	5
TAP	89	192	4
TAP	89	192	5
TAP	89	288	4
TAP	89	288	5
TAP	90	0	3
STR	90	0	6
SLL	90	0	6	96	288	0
TAP	90	96	3
TAP	90	192	3
TAP	90	288	3
TAP	91	0	2
TAP	91	96	2
TAP	91	192	2
TAP	91	192	3
TAP	91	288	2
TAP	91	288	3
STR	92	0	1
SLR	92	0	1	96	288	7
TAP	92	0	4
TAP	92	96	4
TAP	92	192	5
TAP	92	288	5
TAP	93	0	5
STR	93	192	0
SSL	93	192	0	96	1248	4
THO	94	0	0	1152	C	1	M1
XTP	97	192	0
XTP	97	192	7
XTP	97	240	0
XTP	97	240	7
XST	97	288	0
SCR	97	288	0	96	48	3
XST	97	288	7
SCL	97	288	7	96	48	4
BRK	98	192	2
BRK	98	192	5
TAP	99	0	7
TAP	99	48	0
STR	99	96	1
SI_	99	96	1	96	48	4
STR	99	192	0
SCL	99	192	0	96	48	5
TAP	99	288	2
HLD	100	0	1	96
TAP	100	96	3
TAP	100	192	2
TAP	100	192	4
TAP	100	264	2
TAP	100	264	4
TAP	100	336	1
TAP	100	336	5
HLD	101	0	1	96
TAP	101	0	5
STR	101	96	3
SI_	101	96	3	96	48	7
TAP	101	192	2
TAP	101	288	2
TAP	102	0	0
TAP	102	48	7
STR	102	96	6
SI_	102	96	6	96	48	3
STR	102	192	7
SCR	102	192	7	96	48	2
TAP	102	288	5
TAP	103	0	6
TAP	103	48	6
TAP	103	96	4
TAP	103	144	4
TAP	103	192	3
TAP	103	240	3
TAP	103	288	1
TAP	103	336	1
TAP	104	0	0
TAP	104	0	7
TAP	104	96	1
TAP	104	96	2
TAP	104	192	3
TAP	104	192	4
TAP	104	288	5
TAP	104	288	6
TAP	105	0	0
TAP	105	24	7
TAP	105	48	0
TAP	105	72	7
TAP	105	96	0
TAP	105	120	7
TAP	105	144	0
TAP	105	168	7
TAP	105	192	0
TAP	105	216	6
TAP	105	240	0
TAP	105	264	6
TAP	105	288	0
TAP	105	312	7
TAP	105	336	0
TAP	105	360	7
BST	106	0	0
SI_	106	0	0	96	48	4
TAP	106	96	5
TAP	106	192	3
TAP	106	192	6
TAP	106	288	1
TAP	106	288	4
TAP	107	0	0
TAP	107	48	7
STR	107	96	6
SI_	107	96	6	96	48	3
STR	107	192	7
SCR	107	192	7	96	48	2
TAP	107	288	5
HLD	108	0	6	96
TAP	108	96	4
TAP	108	192	3
TAP	108	192	5
TAP	108	264	3
TAP	108	264	5
TAP	108	336	2
TAP	108	336	6
TAP	109	0	2
HLD	109	0	6	96
STR	109	96	4
SI_	109	96	4	96	48	0
TAP	109	192	5
TAP	109	288	5
TAP	110	0	7
TAP	110	48	0
STR	110	96	1
SI_	110	96	1	96	48	4
STR	110	192	0
SCL	110	192	0	96	48	5
TAP	110	288	2
TAP	111	0	1
TAP	111	48	1
TAP	111	96	3
TAP	111	144	3
TAP	111	192	4
TAP	111	240	4
TAP	111	288	6
TAP	111	336	6
TAP	112	0	0
TAP	112	0	7
TAP	112	96	5
TAP	112	96	6
TAP	112	192	3
TAP	112	192	4
TAP	112	288	1
TAP	112	288	2
TAP	113	0	7
TAP	113	24	0
TAP	113	48	7
TAP	113	72	0
TAP	113	96	7
TAP	113	120	0
TAP	113	144	7
TAP	113	168	0
TAP	113	192	7
TAP	113	216	1
TAP	113	240	7
TAP	113	264	1
TAP	113	288	7
TAP	113	312	0
TAP	113	336	7
TAP	113	360	0
BST	114	0	7
SI_	114	0	7	96	48	3
STR	114	96	2
SI_	114	96	2	96	48	5
STR	114	192	6
SI_	114	192	6	96	48	1
TAP	114	288	3
TAP	115	0	4
STR	115	96	5
SI_	115	96	5	96	48	0
STR	115	192	1
SI_	115	192	1	96	48	4
TAP	115	288	6
HLD	116	0	7	96
TAP	116	96	0
TAP	116	192	3
TAP	116	192	4
TAP	116	264	2
TAP	116	264	5
TAP	116	336	1
TAP	116	336	6
HLD	117	0	1	96
TAP	117	0	6
STR	117	96	3
SI_	117	96	3	96	48	7
TAP	117	192	2
TAP	117	288	2
TAP	118	0	7
TAP	118	48	7
TAP	118	96	1
TAP	118	144	1
TAP	118	192	3
TAP	118	240	3
TAP	118	288	2
TAP	118	336	2
TAP	119	0	5
TAP	119	48	5
TAP	119	96	4
TAP	119	144	4
TAP	119	192	6
TAP	119	240	6
TAP	119	288	0
TAP	119	336	0
XTP	120	0	7
XTP	120	24	6
XTP	120	48	5
XTP	120	72	4
XTP	120	96	3
XTP	120	120	2
XTP	120	144	1
XTP	120	168	0
XTP	120	192	7
XTP	120	216	6
XTP	120	240	5
XTP	120	264	4
XTP	120	288	3
XTP	120	312	2
XTP	120	336	1
XTP	120	360	0
TTP	121	0	0	C	1	M1
XTP	121	0	7
XTP	121	144	0
XTP	121	144	7
XST	121	192	0
SI_	121	192	0	96	48	4
XST	121	192	7
SI_	121	192	7	96	48	3
TTP	122	0	0	C	1	M1
TTP	122	0	1	B	0	M1
TTP	122	0	2	B	0	M1
TTP	122	0	5	B	0	M1
TTP	122	0	6	B	0	M1

T_REC_TAP	491
T_REC_BRK	8
T_REC_XTP	44
T_REC_HLD	106
T_REC_XHO	0
T_REC_STR	39
T_REC_BST	2
T_REC_XST	4
T_REC_TTP	59
T_REC_THO	3
T_REC_SLD	49
T_REC_ALL	805
T_NUM_TAP	637
T_NUM_BRK	10
T_NUM_HLD	109
T_NUM_SLD	49
T_NUM_ALL	805
T_JUDGE_TAP	647
T_JUDGE_HLD	201
T_JUDGE_SLD	49
T_JUDGE_ALL	897
TTM_EACHPAIRS	132
TTM_SCR_TAP	318500
TTM_SCR_BRK	26000
TTM_SCR_HLD	109000
TTM_SCR_SLD	73500
TTM_SCR_ALL	527000
TTM_SCR_S	510250
TTM_SCR_SS	526000
TTM_RAT_ACV	10019

