VERSION	0.00.00	1.03.00
FES_MODE	0
BPM_DEF	210.000	210.000	210.000	210.000
MET_DEF	4	4
RESOLUTION	384
CLK_DEF	384
COMPATIBLE_CODE	MA2

BPM	0	0	210.000
MET	0	0	4	4

THO	2	0	0	384	C	1	L1
XTP	4	0	0
XTP	4	0	7
TAP	5	0	6
TAP	5	0	7
TAP	5	192	0
TAP	5	192	1
STR	6	0	2
SXR	6	0	2	96	480	7
TAP	6	0	3
STR	8	0	6
SXR	8	0	6	96	480	3
STR	10	0	2
SXL	10	0	2	96	480	7
STR	12	0	6
SXL	12	0	6	96	480	3
TAP	14	0	2
TAP	14	96	3
TAP	14	192	4
TAP	14	288	5
TAP	15	0	6
TAP	15	96	7
TAP	15	192	0
TAP	15	288	1
TAP	16	0	2
TAP	16	48	2
TAP	16	96	2
TAP	16	192	3
TAP	16	240	3
TAP	16	288	3
TAP	17	0	4
TAP	17	48	4
TAP	17	96	4
BRK	17	192	3
BRK	17	192	5
TTP	18	0	4	B	0	L1
TTP	19	0	0	C	0	L1
TTP	20	0	0	B	0	L1
XTP	21	0	7
XTP	21	96	0
XTP	21	96	7
XTP	21	192	1
XTP	21	192	6
TAP	22	0	5
TAP	22	96	5
TAP	22	192	4
TAP	22	192	5
TAP	23	0	2
TAP	23	96	2
TAP	23	192	2
TAP	23	192	3
TAP	24	0	5
TAP	24	96	5
TAP	24	192	4
TAP	24	192	5
TAP	25	0	3
TAP	25	96	3
TAP	25	192	2
TAP	25	192	4
TAP	26	0	1
TAP	26	96	1
TAP	26	192	0
TAP	26	192	1
TAP	27	0	6
TAP	27	96	6
TAP	27	192	6
TAP	27	192	7
TAP	28	0	1
TAP	28	96	1
TAP	28	192	0
TAP	28	192	1
XTP	29	0	0
XTP	29	0	7
XTP	29	96	0
XTP	29	96	7
XTP	29	192	1
XTP	29	192	6
TAP	30	0	5
TAP	30	96	5
TAP	30	192	4
TAP	30	288	4
TAP	31	0	3
TAP	31	96	3
TAP	31	192	2
TAP	31	192	4
TAP	32	0	1
TAP	32	96	1
TAP	32	192	0
TAP	32	288	0
TAP	33	0	7
TAP	33	96	7
TAP	33	192	0
TAP	33	192	7
TAP	34	0	6
TAP	34	96	6
TAP	34	192	7
TAP	34	288	7
TAP	35	0	0
TAP	35	96	0
TAP	35	192	1
TAP	35	192	7
TAP	36	0	2
TAP	36	96	2
TAP	36	192	3
TAP	36	288	3
XTP	37	0	3
XTP	37	0	4
XTP	37	96	3
XTP	37	96	4
XTP	37	192	2
XTP	37	192	5
TTP	38	0	0	C	1	L1
TAP	39	0	0
TAP	39	0	7
TAP	39	96	1
TAP	39	96	6
TAP	39	192	2
TAP	39	192	5
TAP	39	288	3
TAP	39	288	4
STR	40	0	5
SI_	40	0	5	96	144	0
STR	41	0	1
SI_	41	0	1	96	192	5
STR	42	0	6
SI_	42	0	6	96	192	2
TAP	43	0	1
TAP	43	96	1
TAP	43	192	0
TAP	43	192	7
STR	44	0	6
SCL	44	0	6	96	192	3
STR	45	0	2
SV_	45	0	2	96	192	0
STR	46	0	7
SI_	46	0	7	96	192	4
TAP	47	0	2
TAP	47	96	2
TAP	47	192	3
TAP	47	192	4
STR	48	0	5
SV_	48	0	5	96	192	0
STR	49	0	1
SI_	49	0	1	96	192	5
STR	50	0	6
SI_	50	0	6	96	192	3
TAP	51	0	2
TAP	51	96	2
TAP	51	192	3
TAP	51	192	4
TAP	52	0	2
TAP	52	0	5
TAP	52	192	1
TAP	52	192	6
XHO	53	0	7	384
BRK	54	0	0
TTP	54	192	0	E	0	L1
TTP	55	0	1	E	0	L1
TTP	55	192	2	E	0	L1
TTP	56	0	3	E	0	L1
TTP	56	192	4	E	0	L1
TTP	57	0	5	E	0	L1
TTP	57	192	6	E	0	L1
TTP	58	0	0	C	1	L1
TTP	58	192	7	E	0	L1
TTP	59	0	0	E	0	L1
TTP	59	192	1	E	0	L1
TTP	60	0	2	E	0	L1
TTP	60	192	3	E	0	L1
TTP	61	0	5	E	0	L1
TTP	61	192	2	B	0	L1
TTP	61	192	3	E	0	L1
XTP	62	0	5
XTP	62	96	5
TAP	62	192	4
TAP	62	192	5
TAP	62	288	4
TAP	62	288	5
TAP	63	0	2
TAP	63	96	2
TAP	63	192	2
TAP	63	192	3
TAP	63	288	2
TAP	63	288	3
TAP	64	0	1
TAP	64	96	1
TAP	64	192	0
TAP	64	288	0
TAP	65	0	7
TAP	65	96	7
TAP	65	192	0
TAP	65	192	6
TAP	66	0	1
TAP	66	96	1
TAP	66	192	0
TAP	66	192	1
TAP	66	288	0
TAP	66	288	1
TAP	67	0	6
TAP	67	96	6
TAP	67	192	6
TAP	67	192	7
TAP	67	288	6
TAP	67	288	7
TAP	68	0	5
TAP	68	96	5
TAP	68	192	4
TAP	68	288	4
XTP	69	0	3
XTP	69	0	4
XTP	69	96	3
XTP	69	96	4
XTP	69	192	3
XTP	69	192	4
XTP	69	288	3
XTP	69	288	4
BRK	70	0	2
BRK	70	0	5
TAP	70	192	1
TAP	70	192	6
TAP	71	0	0
TAP	71	0	7
BRK	71	192	1
BRK	71	192	6
STR	72	0	6
SXL	72	0	6	96	480	3
STR	74	0	2
SXL	74	0	2	96	480	7
STR	76	0	6
SXL	76	0	6	96	480	3
TTP	78	0	0	C	1	L1
TAP	79	0	6
TAP	79	96	6
TAP	79	192	6
TAP	79	192	7
HLD	80	0	1	192
TAP	80	192	0
TAP	81	0	2
TAP	81	96	2
TAP	81	192	1
TAP	81	192	3
HLD	82	0	5	192
TAP	82	192	4
TAP	83	0	6
TAP	83	96	6
TAP	83	192	6
TAP	83	192	7
HLD	84	0	1	192
TAP	84	192	0
BRK	85	0	2
BRK	85	0	7
STR	86	0	2
SI_	86	0	2	96	192	7
TAP	87	0	6
TAP	87	96	6
TAP	87	192	6
TAP	87	192	7
STR	88	0	5
SI_	88	0	5	96	192	0
TAP	89	0	1
TAP	89	96	1
TAP	89	192	0
TAP	89	192	1
STR	90	0	2
SI_	90	0	2	96	192	7
TAP	91	0	6
TAP	91	96	6
TAP	91	192	7
TAP	91	288	7
TAP	92	0	0
TAP	92	0	7
TAP	92	96	0
TAP	92	96	7
TAP	92	192	1
TAP	92	192	6
TAP	92	288	1
TAP	92	288	6
TAP	93	0	2
TAP	93	0	5
TAP	93	96	2
TAP	93	96	5
BRK	93	192	3
BRK	93	192	4
THO	94	0	0	1152	C	1	L1
XTP	98	0	0
XTP	98	0	7
XTP	98	96	0
XTP	98	96	7
BRK	98	192	1
BRK	98	192	6
TAP	99	0	5
TAP	99	96	4
TAP	99	96	5
TAP	99	192	5
TAP	99	288	4
TAP	99	288	5
TAP	100	0	2
TAP	100	96	2
TAP	100	96	3
TAP	100	192	2
TAP	100	288	2
TAP	100	288	3
TAP	101	0	1
TAP	101	96	1
TAP	101	192	0
TAP	101	288	0
TAP	102	0	7
TAP	102	96	7
TAP	102	192	0
TAP	102	192	6
TAP	103	0	1
TAP	103	96	0
TAP	103	96	1
TAP	103	192	1
TAP	103	288	0
TAP	103	288	1
TAP	104	0	6
TAP	104	96	6
TAP	104	96	7
TAP	104	192	6
TAP	104	288	6
TAP	104	288	7
TAP	105	0	5
TAP	105	48	5
TAP	105	96	5
TAP	105	192	4
TAP	105	240	4
TAP	105	288	4
TAP	106	0	2
TAP	106	96	2
TAP	106	96	3
TAP	106	192	2
TAP	106	288	2
TAP	106	288	3
TAP	107	0	5
TAP	107	96	4
TAP	107	96	5
TAP	107	192	5
TAP	107	288	4
TAP	107	288	5
TAP	108	0	6
TAP	108	96	6
TAP	108	192	7
TAP	108	288	7
TAP	109	0	0
TAP	109	96	0
TAP	109	192	1
TAP	109	192	7
TAP	110	0	6
TAP	110	96	6
TAP	110	96	7
TAP	110	192	6
TAP	110	288	6
TAP	110	288	7
TAP	111	0	1
TAP	111	96	0
TAP	111	96	1
TAP	111	192	1
TAP	111	288	0
TAP	111	288	1
TAP	112	0	2
TAP	112	96	3
TAP	112	192	4
TAP	112	288	5
TAP	113	0	6
TAP	113	48	6
TAP	113	96	6
TAP	113	192	0
TAP	113	240	0
TAP	113	288	0
TAP	114	0	6
TAP	114	0	7
TAP	114	96	0
TAP	114	96	5
TAP	114	192	4
TAP	114	240	4
TAP	114	288	4
TAP	115	0	2
TAP	115	0	3
TAP	115	96	1
TAP	115	96	4
TAP	115	192	0
TAP	115	240	0
TAP	115	288	0
TAP	116	0	6
TAP	116	0	7
TAP	116	96	0
TAP	116	96	5
TAP	116	192	4
TAP	116	240	4
TAP	116	288	4
TAP	117	0	3
TAP	117	0	5
TAP	117	96	2
TAP	117	96	6
TAP	117	192	1
TAP	117	192	7
TAP	118	0	0
TAP	118	0	1
TAP	118	96	2
TAP	118	96	7
TAP	118	192	3
TAP	118	240	3
TAP	118	288	3
TAP	119	0	4
TAP	119	0	5
TAP	119	96	3
TAP	119	96	6
TAP	119	192	7
TAP	119	240	7
TAP	119	288	7
TAP	120	0	0
TAP	120	48	0
TAP	120	96	0
TAP	120	192	0
TAP	120	192	7
TAP	120	240	0
TAP	120	240	7
TAP	120	288	0
TAP	120	288	7
XST	121	0	0
SI_	121	0	0	96	192	4
XST	121	0	7
SI_	121	0	7	96	192	3
TTP	122	0	0	C	1	L1
TTP	122	0	1	B	0	L1
TTP	122	0	6	B	0	L1

T_REC_TAP	309
T_REC_BRK	13
T_REC_XTP	33
T_REC_HLD	3
T_REC_XHO	1
T_REC_STR	19
T_REC_BST	0
T_REC_XST	2
T_REC_TTP	24
T_REC_THO	2
T_REC_SLD	21
T_REC_ALL	427
T_NUM_TAP	387
T_NUM_BRK	13
T_NUM_HLD	6
T_NUM_SLD	21
T_NUM_ALL	427
T_JUDGE_TAP	400
T_JUDGE_HLD	52
T_JUDGE_SLD	21
T_JUDGE_ALL	473
TTM_EACHPAIRS	100
TTM_SCR_TAP	193500
TTM_SCR_BRK	33800
TTM_SCR_HLD	6000
TTM_SCR_SLD	31500
TTM_SCR_ALL	264800
TTM_SCR_S	255600
TTM_SCR_SS	263500
TTM_RAT_ACV	10049

