VERSION	0.00.00	1.03.00
FES_MODE	0
BPM_DEF	210.000	210.000	210.000	210.000
MET_DEF	4	4
RESOLUTION	384
CLK_DEF	384
COMPATIBLE_CODE	MA2

BPM	0	0	210.000
MET	0	0	4	4

XTP	2	0	3
XTP	2	0	4
XHO	3	0	3	384
XHO	3	0	4	384
HLD	5	0	3	384
HLD	5	0	4	384
XTP	8	0	4
XTP	8	0	5
XTP	10	0	2
XTP	10	0	3
XTP	12	0	3
XTP	12	0	4
TAP	14	0	3
TAP	15	0	2
TAP	16	0	1
TAP	17	0	0
HLD	18	0	0	768
HLD	18	0	7	768
BRK	21	0	0
BRK	21	0	7
TAP	22	0	7
TAP	23	0	6
TAP	24	0	5
TAP	25	0	3
TAP	25	0	4
TAP	26	0	5
TAP	27	0	6
TAP	28	0	7
TAP	29	0	0
TAP	29	0	7
TAP	30	0	0
TAP	30	192	0
TAP	31	0	0
TAP	32	0	1
TAP	33	0	1
TAP	34	0	2
TAP	34	192	2
TAP	35	0	2
TAP	36	0	3
BRK	37	0	3
BRK	37	0	4
TTP	38	0	0	C	1	L1
TTP	39	0	0	B	0	L1
TTP	40	0	7	B	0	L1
TTP	41	0	6	B	0	L1
TTP	42	0	5	B	0	L1
TTP	43	0	4	B	0	L1
TTP	44	0	3	B	0	L1
TTP	45	0	2	B	0	L1
HLD	46	0	0	384
HLD	46	0	1	384
HLD	48	0	2	384
HLD	48	0	3	384
HLD	50	0	4	384
HLD	50	0	5	384
HLD	52	0	6	384
HLD	52	0	7	384
STR	54	0	7
SI_	54	0	7	96	288	4
STR	56	0	3
SI_	56	0	3	96	288	0
STR	58	0	7
SI_	58	0	7	96	288	3
STR	60	0	2
SI_	60	0	2	96	288	5
TAP	62	0	6
TAP	62	192	6
TAP	63	0	6
TAP	63	0	7
TAP	64	0	5
TAP	64	192	5
TAP	65	0	4
TAP	65	0	5
TAP	66	0	2
TAP	66	192	2
TAP	67	0	2
TAP	67	0	3
TAP	68	0	1
TAP	68	192	1
TAP	69	0	0
TAP	69	0	1
TAP	70	0	7
TAP	70	192	7
TAP	71	0	0
TAP	71	192	0
BRK	72	0	0
BRK	72	0	7
HLD	74	0	0	384
HLD	74	0	1	384
HLD	76	0	6	384
HLD	76	0	7	384
TAP	78	0	0
TAP	78	192	0
TAP	79	0	1
TAP	79	0	7
TAP	80	0	7
TAP	80	192	7
TAP	81	0	0
TAP	81	0	6
TAP	82	0	5
TAP	82	192	5
TAP	83	0	4
TAP	83	0	6
TAP	84	0	2
TAP	84	192	2
TAP	85	0	1
TAP	85	0	3
TTP	86	0	0	B	0	L1
TTP	87	0	1	B	0	L1
TTP	88	0	2	B	0	L1
TTP	89	0	3	B	0	L1
TTP	90	0	4	B	0	L1
TTP	91	0	5	B	0	L1
TTP	92	0	6	B	0	L1
TTP	93	0	7	B	0	L1
THO	94	0	0	1152	C	1	L1
BRK	98	192	0
BRK	98	192	7
TAP	99	0	6
TAP	99	96	6
TAP	99	192	6
TAP	100	0	5
TAP	100	192	5
TAP	101	0	4
TAP	101	96	4
TAP	101	192	3
TAP	101	192	4
TAP	102	0	3
TAP	102	192	3
TAP	103	0	2
TAP	103	96	2
TAP	103	192	2
TAP	104	0	1
TAP	104	192	1
BRK	105	0	0
BRK	105	0	7
TAP	106	0	0
TAP	106	96	0
TAP	106	192	0
TAP	107	0	1
TAP	107	96	1
TAP	107	192	1
TAP	108	0	2
TAP	108	96	2
TAP	108	192	2
TAP	109	0	3
TAP	109	0	4
TAP	109	192	3
TAP	109	192	4
TAP	110	0	4
TAP	110	96	4
TAP	110	192	4
TAP	111	0	5
TAP	111	96	5
TAP	111	192	5
TAP	112	0	6
TAP	112	96	6
TAP	112	192	6
BRK	113	0	0
BRK	113	0	7
TAP	113	192	0
TAP	113	192	7
TAP	114	0	7
TAP	114	96	7
TAP	114	192	6
TAP	114	288	6
TAP	115	0	5
TAP	115	192	4
TAP	115	192	5
TAP	116	0	3
TAP	116	96	3
TAP	116	192	2
TAP	116	288	2
TAP	117	0	1
TAP	117	192	0
TAP	117	192	1
TAP	118	0	0
TAP	118	96	0
TAP	118	192	1
TAP	118	288	1
TAP	119	0	2
TAP	119	96	2
TAP	119	192	2
TAP	119	192	3
TAP	120	0	4
TAP	120	96	4
TAP	120	192	5
TAP	120	288	5
TAP	121	0	6
TAP	121	96	6
TAP	121	192	6
TAP	121	192	7
BRK	122	0	0

T_REC_TAP	129
T_REC_BRK	13
T_REC_XTP	8
T_REC_HLD	16
T_REC_XHO	2
T_REC_STR	4
T_REC_BST	0
T_REC_XST	0
T_REC_TTP	16
T_REC_THO	1
T_REC_SLD	4
T_REC_ALL	193
T_NUM_TAP	157
T_NUM_BRK	13
T_NUM_HLD	19
T_NUM_SLD	4
T_NUM_ALL	193
T_JUDGE_TAP	170
T_JUDGE_HLD	184
T_JUDGE_SLD	4
T_JUDGE_ALL	358
TTM_EACHPAIRS	37
TTM_SCR_TAP	78500
TTM_SCR_BRK	33800
TTM_SCR_HLD	19000
TTM_SCR_SLD	6000
TTM_SCR_ALL	137300
TTM_SCR_S	131950
TTM_SCR_SS	136000
TTM_RAT_ACV	10095

