VERSION	0.00.00	1.03.00
FES_MODE	0
BPM_DEF	240.000	240.000	240.000	240.000
MET_DEF	4	4
RESOLUTION	384
CLK_DEF	384
COMPATIBLE_CODE	MA2

BPM	0	0	240.000
MET	0	0	4	4

HLD	2	0	5	768
TTP	2	96	5	E	0	M1
TTP	2	288	4	E	0	M1
TTP	3	96	5	E	0	M1
TTP	3	288	4	E	0	M1
HLD	4	0	2	768
TTP	4	96	3	E	0	M1
TTP	4	288	4	E	0	M1
TTP	5	96	3	E	0	M1
TTP	5	288	4	E	0	M1
HLD	6	0	5	672
TTP	6	96	5	E	0	M1
TTP	6	288	4	E	0	M1
TTP	7	96	5	E	0	M1
TTP	7	288	4	E	0	M1
TAP	8	0	0
TAP	8	32	7
TAP	8	64	0
TAP	8	96	7
TAP	8	128	0
TAP	8	160	7
TAP	8	192	1
TAP	8	224	6
TAP	8	256	1
TAP	8	288	6
TAP	8	320	1
TAP	8	352	6
TAP	9	0	2
TAP	9	32	5
TAP	9	64	2
TAP	9	96	5
TAP	9	128	2
TAP	9	160	5
STR	9	192	3
SI_	9	192	3	96	48	0
SI_	9	192	3	96	48	6
BRK	9	288	3
TAP	10	0	7
TAP	10	64	7
TAP	10	96	0
TAP	10	160	0
TAP	10	192	1
TAP	10	256	1
TAP	10	288	2
TAP	10	352	2
TAP	11	0	3
TAP	11	64	3
TAP	11	96	4
TAP	11	160	4
TAP	11	192	5
TAP	11	288	3
TAP	11	288	6
TAP	12	0	0
TAP	12	64	0
TAP	12	96	7
TAP	12	160	7
TAP	12	192	6
TAP	12	256	6
STR	12	288	5
SI_	12	288	5	96	48	3
STR	13	0	1
SI_	13	0	1	96	48	4
STR	13	96	6
SI_	13	96	6	96	48	3
STR	13	192	0
SI_	13	192	0	96	48	4
HLD	13	288	7	96
BRK	14	0	0
TAP	14	64	0
TAP	14	96	7
TAP	14	160	7
TAP	14	192	6
TAP	14	256	6
TAP	14	288	5
TAP	14	352	5
TAP	15	0	4
TAP	15	64	4
TAP	15	96	3
TAP	15	160	3
TAP	15	192	2
TAP	15	288	1
TAP	15	288	4
TAP	16	0	0
TAP	16	64	0
TAP	16	96	7
TAP	16	160	7
TAP	16	192	1
TAP	16	192	6
TAP	16	288	2
TAP	16	288	5
TAP	17	0	3
TAP	17	32	4
TAP	17	64	3
TAP	17	96	4
TAP	17	128	3
TAP	17	160	4
TAP	17	192	3
TAP	17	224	6
TAP	17	256	3
HLD	17	288	6	384
TAP	18	96	4
TAP	18	288	3
HLD	19	96	2	64
HLD	19	96	5	64
STR	19	288	1
SI_	19	288	1	96	48	7
STR	20	0	1
SI_	20	0	1	96	48	3
HLD	20	96	4	160
TAP	20	256	2
STR	20	288	1
SI_	20	288	1	96	48	7
TAP	20	288	3
STR	21	0	1
SI_	21	0	1	96	48	3
HLD	21	96	4	160
TAP	21	256	2
STR	21	288	1
SI_	21	288	1	96	48	7
TAP	21	288	3
STR	22	0	1
SI_	22	0	1	96	48	3
HLD	22	96	4	160
TAP	22	256	2
STR	22	288	1
SI_	22	288	1	96	48	7
TAP	22	288	3
STR	23	0	1
SI_	23	0	1	96	48	3
STR	23	96	6
SI_	23	96	6	96	48	0
STR	23	192	6
SI_	23	192	6	96	48	4
TAP	23	288	2
TAP	24	0	1
TAP	24	64	1
TAP	24	96	3
TAP	24	160	3
TAP	24	192	2
TAP	24	256	2
TAP	24	288	5
TAP	24	352	5
TAP	25	0	4
TAP	25	64	4
TAP	25	96	6
TAP	25	160	6
TAP	25	192	2
STR	25	288	3
SI_	25	288	3	96	48	0
SI_	25	288	3	96	48	7
STR	26	96	4
SI_	26	96	4	96	48	0
SI_	26	96	4	96	48	7
STR	26	288	3
SXL	26	288	3	96	192	0
STR	26	288	4
SXR	26	288	4	96	192	7
TAP	27	288	2
STR	27	288	6
SI_	27	288	6	96	48	0
STR	28	0	6
SI_	28	0	6	96	48	4
HLD	28	96	3	160
TAP	28	256	5
TAP	28	288	4
STR	28	288	6
SI_	28	288	6	96	48	0
STR	29	0	6
SI_	29	0	6	96	48	4
HLD	29	96	3	160
TAP	29	256	5
TAP	29	288	4
STR	29	288	6
SI_	29	288	6	96	48	0
STR	30	0	6
SI_	30	0	6	96	48	4
HLD	30	96	3	160
TAP	30	256	5
TAP	30	288	4
STR	30	288	6
SI_	30	288	6	96	48	0
STR	31	0	6
SI_	31	0	6	96	48	4
STR	31	96	1
SI_	31	96	1	96	48	7
STR	31	192	1
SI_	31	192	1	96	48	3
TAP	31	288	5
TAP	32	0	6
TAP	32	64	6
TAP	32	96	4
TAP	32	160	4
TAP	32	192	5
TAP	32	256	5
TAP	32	288	2
TAP	32	352	2
TAP	33	0	4
TAP	33	64	4
TAP	33	96	1
TAP	33	160	1
TAP	33	192	3
BST	33	288	2
SXL	33	288	2	96	144	3
SLL	33	288	2	96	144	3
TAP	34	288	2
TAP	34	288	4
TAP	35	0	3
TAP	35	0	5
STR	35	96	4
SF_	35	96	4	96	96	0
TAP	36	0	0
TAP	36	0	7
TAP	36	96	0
TAP	36	96	7
TAP	36	192	6
TAP	36	192	7
TAP	36	288	5
TAP	36	288	6
TAP	37	0	4
STR	37	0	5
SI_	37	0	5	96	48	0
STR	37	96	4
SCL	37	96	4	96	48	1
TAP	37	192	7
STR	37	288	7
SI_	37	288	7	96	48	2
SI_	37	288	7	96	48	4
STR	38	96	0
SCL	38	96	0	96	48	5
SCR	38	96	0	96	48	3
HLD	38	288	7	288
BRK	39	0	5
BRK	39	96	3
BRK	39	192	1
TAP	39	288	2
TAP	39	288	4
TAP	40	0	0
TAP	40	0	7
TAP	40	96	0
TAP	40	96	7
TAP	40	192	0
TAP	40	192	1
TAP	40	288	1
TAP	40	288	2
STR	41	0	2
SI_	41	0	2	96	48	7
TAP	41	0	3
STR	41	96	3
SCR	41	96	3	96	48	6
TAP	41	192	0
STR	41	288	0
SXL	41	288	0	96	48	2
SXR	41	288	0	96	48	6
STR	42	96	7
SV_	42	96	7	96	48	2
SV_	42	96	7	96	48	4
HLD	42	288	0	288
TAP	43	0	2
TAP	43	96	4
TAP	43	192	6
STR	43	288	1
SCL	43	288	1	96	192	3
TAP	44	288	1
TAP	44	288	4
HLD	44	352	1	128
TAP	44	352	4
TAP	45	96	5
TAP	45	192	6
TAP	45	256	6
TAP	45	288	4
TAP	46	0	6
TAP	46	0	7
STR	46	96	0
SV_	46	96	0	96	96	5
STR	46	96	1
SCR	46	96	1	96	96	4
XHO	47	0	6	96
HLD	47	96	4	96
HLD	47	192	3	96
HLD	47	288	1	672
XTP	48	0	3
TTP	48	96	4	E	0	M1
XTP	48	192	5
TTP	48	288	5	E	0	M1
XTP	49	0	3
TTP	49	96	4	E	0	M1
XTP	49	192	5
TTP	49	288	5	E	0	M1
XTP	50	0	2
XTP	50	32	3
XTP	50	64	2
XTP	50	96	5
XTP	50	128	4
XTP	50	160	5
XTP	50	192	2
XTP	50	224	3
XTP	50	256	2
XHO	50	288	4	96
TTP	51	0	0	C	1	M1
TAP	51	288	2
TAP	51	288	5
STR	52	0	1
SI_	52	0	1	96	48	5
STR	52	96	0
SI_	52	96	0	96	48	4
STR	52	192	7
SI_	52	192	7	96	48	3
STR	52	288	6
SI_	52	288	6	96	48	2
HLD	53	0	1	96
TAP	53	96	3
STR	53	192	0
SI_	53	192	0	96	48	3
TAP	53	192	4
STR	53	288	5
SCR	53	288	5	96	48	0
STR	54	0	2
SCR	54	0	2	96	48	5
HLD	54	96	7	96
TAP	54	192	0
STR	54	256	0
SCL	54	256	0	96	96	5
STR	54	256	1
SCR	54	256	1	96	96	4
TAP	55	192	3
TAP	55	192	6
TAP	55	288	1
TAP	55	288	4
TAP	56	0	0
TAP	56	64	6
TAP	56	96	4
TAP	56	128	6
TAP	56	160	4
TAP	56	192	7
TAP	56	256	1
TAP	56	288	3
TAP	56	320	1
TAP	56	352	3
TAP	57	0	0
TAP	57	64	6
TAP	57	96	4
TAP	57	128	6
TAP	57	160	4
TAP	57	192	7
TAP	57	256	1
TAP	57	288	3
TAP	57	320	1
TAP	57	352	3
TAP	58	0	0
XST	58	96	5
SXR	58	96	5	96	240	0
XHO	58	192	3	288
TAP	59	192	2
TAP	59	288	1
STR	59	288	7
SCL	59	288	7	96	96	3
STR	60	0	3
SCL	60	0	3	96	96	7
STR	60	96	7
SCL	60	96	7	96	96	3
STR	60	192	3
SCL	60	192	3	96	96	7
STR	60	288	7
SCL	60	288	7	96	96	3
STR	61	0	3
SCL	61	0	3	96	96	7
TAP	61	96	7
TAP	61	192	3
TAP	61	288	1
TAP	61	288	7
STR	62	0	2
SCR	62	0	2	96	48	5
TAP	62	96	5
STR	62	192	6
SCR	62	192	6	96	48	1
TAP	62	288	1
STR	63	0	2
SCR	63	0	2	96	48	5
TAP	63	96	5
STR	63	192	6
SCR	63	192	6	96	48	1
TAP	63	288	1
TAP	64	0	2
TAP	64	64	5
TAP	64	96	4
TAP	64	160	6
TAP	64	192	7
TAP	64	256	2
TAP	64	288	3
TAP	64	352	1
TAP	65	0	0
TAP	65	64	3
STR	65	96	4
SCR	65	96	4	96	48	7
STR	65	192	0
SCR	65	192	0	96	48	3
XST	65	288	6
SI_	65	288	6	96	48	2
XST	66	0	1
SI_	66	0	1	96	48	5
XTP	66	0	6
XTP	66	96	1
XST	66	96	4
SI_	66	96	4	96	48	7
XST	66	192	3
SI_	66	192	3	96	48	0
XTP	66	192	4
XTP	66	288	3
XTP	66	288	4
XTP	67	0	1
XTP	67	0	6
XTP	67	64	1
XTP	67	64	6
TTP	67	192	0	C	0	M1
XTP	68	0	0
XHO	68	0	7	1152
TAP	68	192	2
TAP	69	0	4
TAP	69	192	4
TAP	69	288	3
TAP	70	0	2
TAP	70	192	4
XTP	70	288	5
XTP	71	0	5
XTP	71	96	3
XTP	71	192	1
STR	71	288	0
SI_	71	288	0	96	48	2
STR	72	0	0
SI_	72	0	0	96	48	4
STR	72	96	0
SI_	72	96	0	96	48	3
STR	72	192	0
SI_	72	192	0	96	48	5
STR	72	288	0
SI_	72	288	0	96	48	2
STR	73	0	0
SI_	73	0	0	96	48	4
STR	73	96	0
SI_	73	96	0	96	48	3
TAP	73	192	0
STR	73	288	7
SI_	73	288	7	96	48	5
STR	74	0	7
SI_	74	0	7	96	48	3
STR	74	96	7
SI_	74	96	7	96	48	4
STR	74	192	7
SI_	74	192	7	96	48	2
STR	74	288	7
SI_	74	288	7	96	48	5
XST	75	0	7
SI_	75	0	7	96	48	3
XST	75	96	7
SI_	75	96	7	96	48	4
XST	75	192	7
SI_	75	192	7	96	48	2
XST	75	288	7
SCL	75	288	7	96	192	0
TTP	76	0	0	C	1	M1
XTP	76	288	0
XTP	76	288	7
XTP	76	352	0
XTP	76	352	7
TAP	77	192	3
TAP	77	192	4
TAP	77	288	2
TAP	77	288	5
TAP	78	0	6
TAP	78	64	6
TAP	78	96	4
TAP	78	160	4
TAP	78	192	3
TAP	78	256	3
TAP	78	288	1
TAP	78	352	1
TAP	79	0	0
TAP	79	64	0
TAP	79	96	7
TAP	79	160	7
TAP	79	192	6
TAP	79	256	6
TAP	79	288	4
XST	80	0	0
SF_	80	0	0	96	48	4
XTP	80	96	0
XST	80	192	7
SF_	80	192	7	96	48	3
XTP	80	288	7
XST	81	0	0
SF_	81	0	0	96	48	4
XTP	81	96	0
XST	81	192	7
SF_	81	192	7	96	48	3
XST	81	288	7
SCL	81	288	7	96	192	0
HLD	82	288	7	192
HLD	83	0	0	96
BRK	83	192	1
BRK	83	192	6
BRK	84	0	0
TAP	84	32	1
TAP	84	64	2
XTP	84	96	7
TAP	84	128	6
TAP	84	160	5
TAP	84	192	1
TAP	84	224	2
TAP	84	256	3
XTP	84	288	6
TAP	84	320	5
TAP	84	352	4
TAP	85	0	1
TAP	85	32	2
TAP	85	64	3
XTP	85	96	6
TAP	85	128	5
TAP	85	160	4
XTP	85	192	0
TAP	85	224	7
TAP	85	256	6
XTP	85	288	5
TAP	85	320	4
TAP	85	352	3
TAP	86	0	7
TAP	86	32	6
TAP	86	64	5
XTP	86	96	0
TAP	86	128	1
TAP	86	160	2
TAP	86	192	6
TAP	86	224	5
TAP	86	256	4
XTP	86	288	1
TAP	86	320	2
TAP	86	352	3
TAP	87	0	6
TAP	87	32	5
TAP	87	64	4
XTP	87	96	1
TAP	87	128	2
TAP	87	160	3
XTP	87	192	7
TAP	87	224	0
TAP	87	256	1
XTP	87	288	2
TAP	87	320	3
TAP	87	352	4
TAP	88	0	1
TAP	88	32	2
TAP	88	64	3
XTP	88	96	0
TAP	88	128	1
TAP	88	160	2
TAP	88	192	6
TAP	88	224	5
TAP	88	256	4
XTP	88	288	7
TAP	88	320	6
TAP	88	352	5
TAP	89	0	0
TAP	89	32	1
TAP	89	64	2
XTP	89	96	7
TAP	89	128	6
TAP	89	160	5
XTP	89	192	0
TAP	89	224	7
TAP	89	256	6
XTP	89	288	5
TAP	89	320	4
TAP	89	352	3
TAP	90	0	6
TAP	90	32	5
TAP	90	64	4
XTP	90	96	7
TAP	90	128	6
TAP	90	160	5
TAP	90	192	1
TAP	90	224	2
TAP	90	256	3
XTP	90	288	0
TAP	90	320	1
TAP	90	352	2
XTP	91	0	7
TAP	91	32	6
TAP	91	64	5
XTP	91	96	0
TAP	91	128	1
TAP	91	160	2
XTP	91	192	7
XTP	91	288	3
XTP	91	288	5
XTP	92	0	2
TAP	92	32	3
TAP	92	64	2
XTP	92	96	5
TAP	92	128	4
TAP	92	160	5
XTP	92	192	2
TAP	92	224	3
TAP	92	256	2
XTP	92	288	5
TAP	92	320	4
TAP	92	352	5
XTP	93	0	1
TAP	93	32	0
TAP	93	64	1
XTP	93	96	6
TAP	93	128	7
TAP	93	160	6
XTP	93	192	0
TAP	93	224	7
TAP	93	256	0
XTP	93	288	1
TAP	93	320	2
TAP	93	352	3
XTP	94	0	5
TAP	94	32	4
TAP	94	64	5
XTP	94	96	2
TAP	94	128	3
TAP	94	160	2
XTP	94	192	5
TAP	94	224	4
TAP	94	256	5
XTP	94	288	2
TAP	94	320	3
TAP	94	352	2
XTP	95	0	6
TAP	95	32	7
TAP	95	64	6
XTP	95	96	1
TAP	95	128	0
TAP	95	160	1
XTP	95	192	7
TAP	95	224	0
TAP	95	256	7
XTP	95	288	6
TAP	95	320	5
TAP	95	352	4
XTP	96	0	1
TAP	96	32	0
TAP	96	64	1
XTP	96	96	6
TAP	96	128	7
TAP	96	160	6
XTP	96	192	1
TAP	96	224	0
TAP	96	256	1
XTP	96	288	6
TAP	96	320	7
TAP	96	352	6
XTP	97	0	1
TAP	97	32	0
TAP	97	64	1
XTP	97	96	6
TAP	97	128	7
TAP	97	160	6
XTP	97	192	0
TAP	97	224	7
TAP	97	256	0
XTP	97	288	1
TAP	97	320	2
TAP	97	352	3
XTP	98	0	6
TAP	98	32	7
TAP	98	64	6
XTP	98	96	1
TAP	98	128	0
TAP	98	160	1
XTP	98	192	6
TAP	98	224	7
TAP	98	256	6
XTP	98	288	1
TAP	98	320	0
TAP	98	352	1
XTP	99	0	6
TAP	99	32	7
TAP	99	64	6
XTP	99	96	1
TAP	99	128	0
TAP	99	160	1
STR	99	192	7
SI_	99	192	7	96	96	3
STR	99	288	3
SCL	99	288	3	96	576	4
TAP	104	0	4
HLD	104	96	5	288
TAP	105	0	3
HLD	105	96	2	288
TAP	106	0	4
HLD	106	96	5	288
THO	107	0	0	864	C	0	M1
XST	110	0	0
SI_	110	0	0	96	480	3
XST	110	0	7
SI_	110	0	7	96	480	4
STR	111	288	3
SCL	111	288	3	96	48	0
STR	111	288	4
SCR	111	288	4	96	48	7
TTP	115	0	0	C	1	M1
TTP	115	0	3	B	0	M1
TTP	115	0	4	B	0	M1
TAP	115	192	0
TAP	115	224	7
TAP	115	256	0
BRK	115	288	1
BRK	115	288	6
TAP	116	0	3
TAP	116	0	4
TAP	116	64	1
TAP	116	96	3
TAP	116	128	2
TAP	116	160	3
BRK	116	192	0
TAP	116	256	6
TAP	116	288	4
TAP	116	320	5
TAP	116	352	4
BRK	117	0	7
TAP	117	64	1
TAP	117	96	3
TAP	117	128	2
TAP	117	160	3
BRK	117	192	0
TAP	117	256	6
TAP	117	288	4
TAP	117	320	5
TAP	117	352	4
XST	118	0	6
SI_	118	0	6	96	48	2
XTP	118	64	6
XST	118	96	7
SI_	118	96	7	96	48	3
XTP	118	160	7
XST	118	192	0
SI_	118	192	0	96	48	4
XTP	118	256	0
XST	118	288	1
SI_	118	288	1	96	48	5
XTP	118	352	1
XST	119	0	2
SI_	119	0	2	96	48	6
XTP	119	64	2
XST	119	96	3
SI_	119	96	3	96	48	7
XTP	119	160	3
XTP	119	192	4
STR	119	288	0
SCR	119	288	0	96	96	4
STR	120	0	4
SCR	120	0	4	96	96	0
STR	120	96	0
SCR	120	96	0	96	96	4
STR	120	192	4
SCR	120	192	4	96	96	0
STR	120	288	0
SCR	120	288	0	96	96	4
STR	121	0	4
SCR	121	0	4	96	96	0
TAP	121	96	0
TAP	121	192	4
TAP	121	288	0
TAP	121	288	6
STR	122	0	5
SCL	122	0	5	96	48	2
TAP	122	96	2
STR	122	192	1
SCL	122	192	1	96	48	6
TAP	122	288	6
STR	123	0	5
SCL	123	0	5	96	48	2
TAP	123	96	2
STR	123	192	1
SCL	123	192	1	96	48	6
TAP	123	288	5
TAP	124	0	4
TAP	124	64	2
TAP	124	96	3
TAP	124	160	1
TAP	124	192	0
TAP	124	256	5
TAP	124	288	4
TAP	124	352	6
TAP	125	0	7
TAP	125	64	2
TAP	125	96	3
TAP	125	160	1
TAP	125	192	0
STR	125	288	1
SI_	125	288	1	96	48	4
TAP	125	288	4
TAP	126	0	1
STR	126	0	6
SI_	126	0	6	96	48	3
STR	126	96	2
SI_	126	96	2	96	48	7
TAP	126	96	6
TAP	126	192	2
STR	126	192	5
SI_	126	192	5	96	48	0
HLD	126	288	1	96
TAP	126	288	5
TAP	127	0	3
STR	127	96	0
SI_	127	96	0	96	48	3
STR	127	96	4
SI_	127	96	4	96	48	7
TAP	128	0	2
TAP	128	32	4
TAP	128	64	2
TAP	128	96	4
TAP	128	128	2
TAP	128	160	4
TAP	128	192	1
TAP	128	224	5
TAP	128	256	1
TAP	128	288	5
TAP	128	320	1
TAP	128	352	5
TAP	129	0	2
TAP	129	32	6
TAP	129	64	2
TAP	129	96	6
TAP	129	128	2
TAP	129	160	6
TAP	129	192	1
TAP	129	224	7
TAP	129	256	1
TAP	129	288	7
TAP	129	320	1
TAP	129	352	7
TAP	130	0	3
TAP	130	32	5
TAP	130	64	3
TAP	130	96	5
TAP	130	128	3
TAP	130	160	5
TAP	130	192	2
TAP	130	224	4
TAP	130	256	2
TAP	130	288	4
TAP	130	320	2
TAP	130	352	4
TAP	131	0	0
TAP	131	32	6
TAP	131	64	0
TAP	131	96	6
TAP	131	128	0
TAP	131	160	6
TAP	131	192	0
HLD	131	288	1	96
HLD	131	288	5	96
TAP	132	64	0
TAP	132	96	4
TAP	132	128	0
TAP	132	160	4
TAP	132	192	0
TAP	132	224	3
TAP	132	256	0
TAP	132	288	3
TAP	132	320	0
TAP	132	352	4
TAP	133	0	0
TAP	133	32	3
TAP	133	64	0
TAP	133	96	4
TAP	133	128	0
TAP	133	160	3
TAP	133	192	0
TAP	133	224	4
TAP	133	256	0
TAP	133	288	3
TAP	133	320	0
TAP	133	352	4
STR	134	0	0
SI_	134	0	0	96	48	4
STR	134	96	6
SI_	134	96	6	96	48	1
STR	134	192	2
SXL	134	192	2	96	144	2
TAP	134	288	7
TAP	135	192	3
TAP	135	192	4
XTP	135	288	1
XTP	135	288	6
BRK	136	0	2
TAP	136	32	7
TAP	136	64	2
TAP	136	96	7
TAP	136	128	2
TAP	136	160	7
TAP	136	192	2
TAP	136	224	7
TAP	136	256	2
TAP	136	288	7
TAP	136	320	1
TAP	136	352	6
BRK	137	0	0
TAP	137	32	5
TAP	137	64	0
TAP	137	96	5
TAP	137	128	0
TAP	137	160	5
TAP	137	192	0
TAP	137	224	5
TAP	137	256	0
TAP	137	288	5
TAP	137	320	1
TAP	137	352	6
BRK	138	0	2
TAP	138	32	7
TAP	138	64	2
TAP	138	96	7
TAP	138	128	1
TAP	138	160	6
BRK	138	192	0
TAP	138	224	5
TAP	138	256	0
TAP	138	288	5
TAP	138	320	1
TAP	138	352	6
BRK	139	0	2
TAP	139	32	7
TAP	139	64	2
TAP	139	96	7
TAP	139	128	1
TAP	139	160	6
BRK	139	192	0
TAP	139	224	5
TAP	139	256	0
TAP	139	288	5
TAP	139	320	1
TAP	139	352	6
BRK	140	0	2
STR	140	96	4
SCL	140	96	4	96	96	1
STR	140	96	5
SV_	140	96	5	96	96	0
TAP	141	0	2
STR	141	96	2
SV_	141	96	2	96	96	7
STR	141	96	3
SCR	141	96	3	96	96	6
TAP	142	0	0
TAP	142	0	7
STR	142	96	0
SCR	142	96	0	96	96	3
STR	142	96	7
SCL	142	96	7	96	96	4
BRK	143	0	3
BRK	143	0	4
BRK	143	96	2
BRK	143	96	5
BRK	143	192	1
BRK	143	192	6
BRK	143	288	0
BRK	143	288	7
BRK	144	0	3
TAP	144	32	4
TAP	144	64	3
TAP	144	96	4
TAP	144	128	3
TAP	144	160	4
BRK	144	192	3
TAP	144	224	6
TAP	144	256	3
TAP	144	288	6
TAP	144	320	3
TAP	144	352	6
BRK	145	0	3
TAP	145	32	0
TAP	145	64	3
TAP	145	96	0
TAP	145	128	3
TAP	145	160	0
BRK	145	192	3
TAP	145	224	2
TAP	145	256	3
TAP	145	288	2
TAP	145	320	3
TAP	145	352	2
BRK	146	0	3
TAP	146	32	1
TAP	146	64	3
BRK	146	96	0
TAP	146	128	3
TAP	146	160	7
BRK	146	192	3
TAP	146	224	6
TAP	146	256	3
BRK	146	288	5
TAP	146	320	3
TAP	146	352	4
TTP	147	0	0	C	1	M1
BRK	148	0	1
BRK	148	0	6

T_REC_TAP	549
T_REC_BRK	38
T_REC_XTP	95
T_REC_HLD	29
T_REC_XHO	4
T_REC_STR	103
T_REC_BST	1
T_REC_XST	22
T_REC_TTP	23
T_REC_THO	1
T_REC_SLD	134
T_REC_ALL	999
T_NUM_TAP	792
T_NUM_BRK	39
T_NUM_HLD	34
T_NUM_SLD	134
T_NUM_ALL	999
T_JUDGE_TAP	831
T_JUDGE_HLD	102
T_JUDGE_SLD	134
T_JUDGE_ALL	1067
TTM_EACHPAIRS	73
TTM_SCR_TAP	396000
TTM_SCR_BRK	101400
TTM_SCR_HLD	34000
TTM_SCR_SLD	201000
TTM_SCR_ALL	732400
TTM_SCR_S	706650
TTM_SCR_SS	728500
TTM_RAT_ACV	10053

