VERSION	0.00.00	1.03.00
FES_MODE	0
BPM_DEF	240.000	240.000	240.000	240.000
MET_DEF	4	4
RESOLUTION	384
CLK_DEF	384
COMPATIBLE_CODE	MA2

BPM	0	0	240.000
MET	0	0	4	4

HLD	2	0	2	192
HLD	2	192	3	192
HLD	3	0	4	192
TAP	3	192	5
TAP	3	288	4
TAP	3	288	5
HLD	4	0	5	192
HLD	4	192	4	192
HLD	5	0	3	192
TAP	5	192	2
TAP	5	288	2
TAP	5	288	3
HLD	6	0	2	192
HLD	6	192	5	192
TAP	7	0	4
TAP	7	96	4
TAP	7	96	5
TAP	7	192	3
TAP	7	192	6
HLD	8	0	4	64
HLD	8	0	5	64
HLD	8	96	3	64
HLD	8	96	4	64
HLD	8	192	2	64
HLD	8	192	3	64
HLD	8	288	1	64
HLD	8	288	2	64
HLD	9	0	0	64
HLD	9	0	1	64
HLD	9	96	0	64
HLD	9	96	7	64
BRK	9	192	1
BRK	9	192	6
TAP	10	0	4
TAP	10	0	5
TAP	10	96	6
TAP	10	192	0
TAP	10	192	7
TAP	10	288	1
TAP	11	0	2
TAP	11	0	3
TAP	11	96	1
TAP	11	192	0
TAP	11	192	7
TAP	11	288	6
TAP	12	0	4
TAP	12	0	5
TAP	12	96	6
TAP	12	192	0
TAP	12	192	7
TAP	12	288	1
TAP	13	0	2
TAP	13	0	3
TAP	13	96	2
TAP	13	96	3
TAP	13	192	1
TAP	13	192	4
TAP	14	0	6
TAP	14	0	7
TAP	14	96	5
TAP	14	192	3
TAP	14	192	4
TAP	14	288	2
TAP	15	0	0
TAP	15	0	1
TAP	15	96	2
TAP	15	192	3
TAP	15	192	4
TAP	15	288	5
TAP	16	0	6
TAP	16	0	7
TAP	16	96	5
TAP	16	192	3
TAP	16	192	4
TAP	16	288	2
TAP	17	0	0
TAP	17	0	1
TAP	17	96	0
TAP	17	96	7
BRK	17	192	1
BRK	17	192	6
TAP	18	0	3
TAP	18	0	4
TAP	18	96	3
TAP	18	96	4
TTP	18	288	5	E	0	M1
TTP	19	96	4	E	0	M1
TTP	19	288	3	E	0	M1
XTP	20	0	2
XTP	20	0	3
STR	20	96	2
SCR	20	96	2	96	96	4
TAP	20	96	3
XTP	21	0	4
XTP	21	0	5
TAP	21	96	4
STR	21	96	5
SCL	21	96	5	96	96	3
XTP	22	0	2
XTP	22	0	3
STR	22	96	2
SCR	22	96	2	96	96	4
TAP	22	96	3
XHO	23	0	4	96
XHO	23	0	6	96
HLD	23	192	3	96
HLD	23	192	5	96
TAP	24	0	2
TAP	24	96	1
TAP	24	96	3
TAP	24	192	2
TAP	24	288	2
TAP	25	0	5
TAP	25	96	4
TAP	25	96	6
TAP	25	192	5
TAP	25	288	5
STR	26	0	2
SI_	26	0	2	96	96	5
STR	26	192	6
SI_	26	192	6	96	96	2
TAP	27	0	3
STR	27	96	3
SCL	27	96	3	96	96	0
XTP	28	0	6
XTP	28	0	7
STR	28	96	6
SCR	28	96	6	96	96	0
TAP	28	96	7
XTP	29	0	0
XTP	29	0	1
TAP	29	96	0
STR	29	96	1
SCL	29	96	1	96	96	7
XTP	30	0	6
XTP	30	0	7
STR	30	96	6
SCR	30	96	6	96	96	0
TAP	30	96	7
HLD	31	0	2	96
HLD	31	0	4	96
HLD	31	192	3	96
HLD	31	192	5	96
TAP	32	0	6
TAP	32	96	6
TAP	32	192	3
TAP	32	192	5
TAP	32	288	2
TAP	33	0	1
TAP	33	96	1
TAP	33	192	2
TAP	33	192	4
TAP	33	288	5
STR	34	0	6
SCL	34	0	6	96	96	3
STR	34	192	2
SCL	34	192	2	96	96	7
TAP	35	0	6
TAP	35	96	6
TAP	35	192	0
TAP	35	192	7
HLD	36	0	6	96
HLD	36	96	5	96
HLD	36	192	4	96
HLD	36	288	3	96
HLD	37	0	5	96
HLD	37	96	4	96
HLD	37	192	3	96
HLD	37	288	2	96
HLD	38	0	4	96
HLD	38	96	3	96
HLD	38	192	2	96
HLD	38	288	1	96
TTP	39	0	1	E	0	M1
TTP	39	96	0	E	0	M1
TTP	39	96	2	E	0	M1
TTP	39	192	3	E	0	M1
TTP	39	192	7	E	0	M1
HLD	40	0	1	96
HLD	40	96	2	96
HLD	40	192	3	96
HLD	40	288	4	96
HLD	41	0	2	96
HLD	41	96	3	96
HLD	41	192	4	96
HLD	41	288	5	96
HLD	42	0	3	96
HLD	42	96	4	96
HLD	42	192	5	96
HLD	42	288	6	96
TTP	43	0	7	E	0	M1
TTP	43	96	0	E	0	M1
TTP	43	96	6	E	0	M1
TTP	43	192	1	E	0	M1
TTP	43	192	5	E	0	M1
XST	44	0	2
SLL	44	0	2	96	192	4
STR	45	0	6
SLL	45	0	6	96	192	0
HLD	46	0	1	96
HLD	46	96	0	96
HLD	46	192	7	96
HLD	46	288	6	96
HLD	47	0	5	96
HLD	47	96	4	96
TAP	47	192	3
TTP	48	0	5	E	0	M1
TTP	48	192	4	E	0	M1
TTP	49	0	3	E	0	M1
TTP	49	192	2	E	0	M1
XTP	50	0	0
XTP	50	0	1
XTP	50	96	0
XTP	50	96	1
XTP	50	192	0
XTP	50	192	7
XTP	50	288	0
XTP	50	288	7
BRK	51	0	1
BRK	51	0	6
TAP	51	288	3
TAP	51	288	4
HLD	52	0	5	64
TAP	52	64	4
TAP	52	96	6
HLD	52	192	2	64
TAP	52	256	3
TAP	52	288	1
TAP	53	0	4
TAP	53	0	6
TAP	53	96	0
TAP	53	96	7
TAP	53	192	1
TAP	53	192	3
TAP	53	288	2
TAP	53	288	4
TAP	54	0	3
TAP	54	0	5
TAP	54	96	4
TAP	54	96	6
TAP	54	192	0
TAP	54	192	7
XST	54	240	0
SI_	54	240	0	96	96	4
XST	54	240	7
SI_	54	240	7	96	96	3
TAP	55	192	2
TAP	55	192	5
TAP	55	288	1
TAP	55	288	6
TAP	56	0	7
HLD	56	96	6	192
TAP	56	192	5
HLD	56	288	4	192
TAP	57	0	3
HLD	57	96	2	192
TAP	57	192	1
HLD	57	288	0	96
TAP	58	0	7
TAP	58	96	1
TAP	58	96	6
STR	58	192	2
SXL	58	192	2	96	240	3
SLL	58	192	2	96	240	3
TAP	58	192	5
HLD	60	0	3	96
HLD	60	0	5	96
XTP	60	192	2
XTP	60	192	4
XTP	60	240	2
XTP	60	240	4
HLD	60	336	1	144
TAP	60	336	3
TAP	61	96	0
TAP	61	192	0
TAP	61	192	1
TAP	61	288	6
TAP	61	288	7
TAP	62	0	4
STR	62	0	5
SCR	62	0	5	96	96	0
STR	62	192	1
SCR	62	192	1	96	96	4
TAP	63	0	7
HLD	63	96	7	192
TAP	63	288	4
HLD	64	0	3	96
HLD	64	0	6	96
HLD	64	192	1	96
HLD	64	192	4	96
TAP	65	0	3
TAP	65	0	5
STR	65	96	3
SI_	65	96	3	96	96	0
STR	65	96	5
SI_	65	96	5	96	96	0
TAP	66	0	1
TAP	66	0	7
TAP	66	96	1
TAP	66	96	7
TAP	66	192	2
TAP	66	192	6
TAP	66	288	3
TAP	66	288	5
HLD	67	0	2	48
HLD	67	0	4	48
TAP	67	192	0
TAP	67	192	7
TAP	68	0	3
TAP	68	0	4
TAP	68	96	2
HLD	68	96	5	768
TTP	68	288	3	E	0	M1
TTP	69	96	4	E	0	M1
TTP	69	288	5	E	0	M1
TTP	70	96	6	E	0	M1
TTP	70	288	0	C	0	M1
TTP	71	0	3	B	0	M1
TTP	71	0	3	E	0	M1
TTP	71	96	4	B	0	M1
TTP	71	96	5	E	0	M1
TTP	71	192	0	B	0	M1
TTP	71	192	7	B	0	M1
TAP	72	0	5
TAP	72	96	4
TAP	72	96	6
TAP	72	192	5
TAP	72	288	3
TAP	72	288	4
TAP	73	0	2
TAP	73	96	1
TAP	73	96	3
TAP	73	192	2
TAP	73	288	3
TAP	73	288	4
TAP	74	0	5
TAP	74	96	4
TAP	74	96	6
TAP	74	192	5
TAP	74	288	3
TAP	74	288	4
XTP	75	0	2
XTP	75	0	5
XTP	75	96	2
XTP	75	96	5
XTP	75	192	1
XTP	75	192	6
XTP	75	288	1
XTP	75	288	6
BRK	76	0	0
BST	76	0	7
SXR	76	0	7	96	288	3
XTP	76	288	2
XTP	76	336	2
TAP	77	192	1
TAP	77	192	3
TAP	77	288	2
TAP	78	0	5
TAP	78	96	4
TAP	78	96	5
TAP	78	192	2
TAP	78	288	2
TAP	78	288	3
TAP	79	0	1
TAP	79	96	0
TAP	79	192	7
TAP	79	288	6
HLD	80	0	5	192
TAP	80	96	4
HLD	80	192	2	192
TAP	80	288	3
HLD	81	0	6	192
TAP	81	96	5
HLD	81	192	1	96
TAP	81	288	2
TAP	82	0	0
TAP	82	0	7
TAP	82	96	0
TAP	82	96	7
TAP	82	192	1
TAP	82	192	6
TAP	82	288	2
TAP	82	288	5
STR	83	0	3
SI_	83	0	3	96	96	0
STR	83	0	4
SI_	83	0	4	96	96	7
TAP	84	0	4
TAP	84	0	6
TAP	84	96	4
TAP	84	96	6
TTP	84	192	6	E	0	M1
TTP	84	288	2	E	0	M1
TAP	85	0	3
TAP	85	0	4
TAP	85	96	3
TAP	85	96	4
TTP	85	192	5	E	0	M1
TTP	85	288	3	E	0	M1
TAP	86	0	1
TAP	86	0	3
TAP	86	96	1
TAP	86	96	3
TTP	86	192	1	E	0	M1
TTP	86	288	7	E	0	M1
TAP	87	0	0
TAP	87	0	7
TAP	87	96	0
TAP	87	96	7
TAP	87	192	1
TAP	87	192	6
TAP	88	0	4
TAP	88	0	6
TAP	88	96	3
TAP	88	96	5
TTP	88	192	6	E	0	M1
TTP	88	288	4	E	0	M1
TAP	89	0	2
TAP	89	0	4
TAP	89	96	1
TAP	89	96	3
TTP	89	192	2	E	0	M1
TTP	89	288	0	E	0	M1
TAP	90	0	1
TAP	90	0	7
TAP	90	96	0
TAP	90	96	6
TTP	90	192	6	E	0	M1
TTP	90	288	4	E	0	M1
TAP	91	0	3
TAP	91	0	5
TAP	91	96	2
TAP	91	96	4
BRK	91	192	1
BRK	91	192	6
TAP	92	0	5
TAP	92	48	5
TAP	92	96	3
TTP	92	192	6	B	0	M1
TTP	92	192	7	E	0	M1
TTP	92	288	3	B	0	M1
TTP	92	288	4	E	0	M1
TAP	93	0	2
TAP	93	48	2
TAP	93	96	4
TTP	93	192	1	B	0	M1
TTP	93	192	1	E	0	M1
TTP	93	288	4	B	0	M1
TTP	93	288	4	E	0	M1
TAP	94	0	5
TAP	94	48	5
TAP	94	96	3
TTP	94	192	6	B	0	M1
TTP	94	192	7	E	0	M1
TTP	94	288	3	B	0	M1
TTP	94	288	4	E	0	M1
TAP	95	0	2
TAP	95	48	2
TAP	95	96	4
TTP	95	192	1	B	0	M1
TTP	95	192	1	E	0	M1
TTP	95	288	4	B	0	M1
TTP	95	288	4	E	0	M1
TAP	96	0	6
TAP	96	48	6
TAP	96	96	0
TTP	96	192	5	B	0	M1
TTP	96	192	5	E	0	M1
TTP	96	288	0	B	0	M1
TTP	96	288	0	E	0	M1
TAP	97	0	1
TAP	97	48	1
TAP	97	96	7
TTP	97	192	2	B	0	M1
TTP	97	192	3	E	0	M1
TTP	97	288	0	E	0	M1
TTP	97	288	7	B	0	M1
TAP	98	0	6
TAP	98	48	6
TAP	98	96	0
TAP	98	144	0
TAP	98	192	7
TAP	98	240	7
TAP	98	288	1
TAP	98	336	1
TAP	99	0	6
TAP	99	48	6
TAP	99	96	0
TAP	99	144	0
TAP	99	192	1
TAP	99	192	7
TAP	99	288	2
TAP	99	288	6
BST	100	0	3
SCL	100	0	3	96	1248	4
BRK	100	0	5
STR	104	0	3
SCL	104	0	3	96	1248	4
THO	107	0	0	768	C	0	M1
STR	110	0	3
SI_	110	0	3	96	672	0
STR	112	0	3
SUR	112	0	3	96	576	4
BRK	115	0	0
BRK	115	0	7
TAP	115	96	1
TAP	115	96	6
TAP	115	192	2
TAP	115	192	5
TAP	115	288	3
TAP	115	288	4
HLD	116	0	5	192
TAP	116	96	7
HLD	116	192	2	192
TAP	116	288	0
HLD	117	0	6	192
TAP	117	96	4
HLD	117	192	1	96
TAP	117	288	3
TAP	118	0	2
TAP	118	0	4
TAP	118	96	3
TAP	118	96	5
STR	118	192	2
SXL	118	192	2	96	240	3
SLL	118	192	2	96	240	3
TAP	118	192	4
HLD	120	0	2	96
HLD	120	0	4	96
XTP	120	192	3
XTP	120	192	5
XTP	120	240	3
XTP	120	240	5
TAP	120	336	4
HLD	120	336	6	144
TAP	121	96	7
TAP	121	192	6
TAP	121	192	7
TAP	121	288	0
TAP	121	288	1
STR	122	0	2
SCL	122	0	2	96	96	7
TAP	122	0	3
STR	122	192	6
SCL	122	192	6	96	96	3
TAP	123	0	0
HLD	123	96	0	192
TAP	123	288	3
HLD	124	0	1	96
HLD	124	0	4	96
HLD	124	192	3	96
HLD	124	192	6	96
TAP	125	0	2
TAP	125	0	4
STR	125	96	2
SI_	125	96	2	96	96	7
STR	125	96	4
SI_	125	96	4	96	96	7
TAP	126	0	0
TAP	126	0	6
TAP	126	96	0
TAP	126	96	6
TAP	126	192	1
TAP	126	192	5
TAP	126	288	2
TAP	126	288	4
STR	127	0	3
SCL	127	0	3	96	96	0
STR	127	0	5
SCR	127	0	5	96	96	0
TAP	128	0	1
TAP	128	96	0
TAP	128	96	2
TAP	128	192	3
TAP	128	288	2
TAP	128	288	4
TAP	129	0	3
TAP	129	0	5
HLD	129	96	2	96
HLD	129	96	6	96
TAP	129	288	0
TAP	129	288	7
TAP	130	0	6
TAP	130	96	5
TAP	130	96	7
TAP	130	192	4
TAP	130	288	3
TAP	130	288	5
TAP	131	0	2
TAP	131	0	4
TAP	131	96	1
TAP	131	96	5
HLD	131	192	0	96
HLD	131	192	6	96
STR	132	0	7
SCL	132	0	7	96	96	4
STR	132	192	3
SCL	132	192	3	96	96	0
STR	133	0	7
SUL	133	0	7	96	96	3
STR	133	192	2
SUL	133	192	2	96	96	6
TAP	134	0	5
TAP	134	96	5
TAP	134	192	4
TAP	134	192	5
TAP	134	288	2
TAP	134	288	3
TAP	135	0	1
TAP	135	0	4
TAP	135	192	0
TAP	135	288	0
HLD	136	0	1	96
HLD	136	0	7	96
XTP	136	192	2
XTP	136	192	6
XTP	136	240	2
XTP	136	240	6
TAP	136	336	1
HLD	136	336	5	144
TAP	137	96	4
TAP	137	192	4
TAP	137	192	5
TAP	137	288	3
TAP	137	288	6
STR	138	0	2
SCL	138	0	2	96	96	7
TAP	138	0	7
STR	138	192	6
SCL	138	192	6	96	96	3
TAP	139	0	1
HLD	139	96	1	192
TAP	139	288	3
STR	140	0	2
SI_	140	0	2	96	96	7
HLD	140	0	4	96
TAP	140	192	3
HLD	141	0	3	96
STR	141	0	5
SI_	141	0	5	96	96	0
TAP	141	192	4
HLD	142	0	1	96
HLD	142	96	0	96
HLD	142	192	7	96
HLD	142	288	6	96
HLD	143	0	5	96
HLD	143	96	4	96
BRK	143	192	3
HLD	144	0	2	64
TAP	144	64	3
TAP	144	96	1
HLD	144	192	5	64
TAP	144	256	4
TAP	144	288	6
TAP	145	0	0
TAP	145	0	7
STR	145	96	0
SI_	145	96	0	96	96	4
STR	145	96	7
SI_	145	96	7	96	96	3
HLD	146	0	2	64
TAP	146	64	3
TAP	146	96	1
HLD	146	192	5	64
TAP	146	256	4
TAP	146	288	6
TTP	147	0	4	E	0	M1
TTP	147	192	0	C	0	M1
BST	148	0	0
SXL	148	0	0	96	672	3
BST	148	0	7
SXR	148	0	7	96	672	4

T_REC_TAP	345
T_REC_BRK	13
T_REC_XTP	42
T_REC_HLD	109
T_REC_XHO	2
T_REC_STR	39
T_REC_BST	4
T_REC_XST	3
T_REC_TTP	66
T_REC_THO	1
T_REC_SLD	48
T_REC_ALL	672
T_NUM_TAP	495
T_NUM_BRK	17
T_NUM_HLD	112
T_NUM_SLD	48
T_NUM_ALL	672
T_JUDGE_TAP	512
T_JUDGE_HLD	149
T_JUDGE_SLD	48
T_JUDGE_ALL	709
TTM_EACHPAIRS	177
TTM_SCR_TAP	247500
TTM_SCR_BRK	44200
TTM_SCR_HLD	112000
TTM_SCR_SLD	72000
TTM_SCR_ALL	475700
TTM_SCR_S	459800
TTM_SCR_SS	474000
TTM_RAT_ACV	10035

