VERSION	0.00.00	1.03.00
FES_MODE	0
BPM_DEF	240.000	240.000	240.000	240.000
MET_DEF	4	4
RESOLUTION	384
CLK_DEF	384
COMPATIBLE_CODE	MA2

BPM	0	0	240.000
MET	0	0	4	4

HLD	2	0	2	384
HLD	3	0	3	384
HLD	4	0	4	384
TAP	5	0	5
HLD	6	0	6	192
HLD	6	0	7	192
HLD	7	0	0	192
HLD	7	0	1	192
TAP	8	0	6
TAP	8	96	6
TAP	8	192	7
TAP	8	288	7
TAP	9	0	0
TAP	9	96	0
TAP	9	192	1
TAP	9	192	7
TAP	10	0	6
TAP	10	96	6
TAP	10	192	6
TAP	10	192	7
TAP	11	0	1
TAP	11	96	1
TAP	11	192	0
TAP	11	192	1
TAP	12	0	6
TAP	12	96	6
TAP	12	192	7
TAP	12	288	7
TAP	13	0	0
TAP	13	96	0
TAP	13	192	1
TAP	13	192	7
TAP	14	0	2
TAP	14	96	2
TAP	14	192	2
TAP	14	192	3
TAP	15	0	5
TAP	15	96	5
TAP	15	192	4
TAP	15	192	5
TAP	16	0	2
TAP	16	96	2
TAP	16	192	3
TAP	16	288	3
TAP	17	0	4
TAP	17	96	4
TAP	17	192	3
TAP	17	192	5
TTP	18	0	2	B	0	L1
TTP	19	0	5	B	0	L1
HLD	20	0	2	96
HLD	20	0	3	96
HLD	21	0	4	96
HLD	21	0	5	96
HLD	22	0	2	96
HLD	22	0	3	96
HLD	23	0	4	96
HLD	23	0	5	96
TAP	23	192	4
TAP	23	192	5
HLD	24	0	2	96
TAP	24	96	3
TAP	24	192	3
HLD	25	0	5	96
TAP	25	96	4
TAP	25	192	4
HLD	26	0	2	96
TAP	26	96	3
TAP	26	192	3
TAP	27	0	4
TAP	27	96	4
TAP	27	192	3
TAP	27	192	5
HLD	28	0	6	96
HLD	28	0	7	96
HLD	29	0	0	96
HLD	29	0	1	96
HLD	30	0	6	96
HLD	30	0	7	96
HLD	31	0	0	96
HLD	31	0	1	96
TAP	31	192	0
TAP	31	192	1
HLD	32	0	6	96
TAP	32	96	7
TAP	32	192	7
HLD	33	0	1	96
TAP	33	96	0
TAP	33	192	0
HLD	34	0	6	96
TAP	34	96	7
TAP	34	192	7
TAP	35	0	0
TAP	35	96	0
TAP	35	96	7
TAP	35	192	1
TAP	35	192	6
STR	36	0	5
SI_	36	0	5	96	192	0
TAP	37	0	1
TAP	37	192	1
STR	38	0	2
SI_	38	0	2	96	192	7
TAP	39	0	6
TAP	39	192	0
TAP	39	192	7
STR	40	0	1
SI_	40	0	1	96	192	4
TAP	41	0	5
TAP	41	192	5
STR	42	0	6
SI_	42	0	6	96	192	3
TAP	43	0	2
TAP	43	192	3
TAP	43	192	4
STR	44	0	5
SI_	44	0	5	96	192	2
STR	45	0	1
SI_	45	0	1	96	192	5
STR	46	0	6
SI_	46	0	6	96	192	2
TAP	47	0	1
TAP	47	192	2
TAP	47	192	3
TTP	48	0	4	E	0	L1
TTP	49	0	5	E	0	L1
TAP	50	0	5
TAP	50	96	5
TAP	50	192	4
TAP	50	288	4
BRK	51	0	3
BRK	51	0	5
TAP	52	0	2
TAP	52	96	2
TAP	52	192	2
TAP	52	192	3
TAP	52	288	2
TAP	52	288	3
TAP	53	0	1
TAP	53	96	0
TAP	53	192	1
TAP	53	192	7
TAP	54	0	6
TAP	54	96	6
TAP	54	192	6
TAP	54	192	7
TAP	54	288	6
TAP	54	288	7
TAP	55	0	5
TAP	55	96	4
TAP	55	192	3
TAP	55	192	5
HLD	56	0	2	96
TAP	56	96	3
TAP	56	192	2
TAP	56	192	3
HLD	57	0	5	96
TAP	57	96	4
TAP	57	192	4
TAP	57	192	5
TAP	58	0	6
TAP	58	96	6
TAP	58	192	7
TAP	58	288	7
TAP	59	0	0
TAP	59	96	0
TAP	59	192	1
TAP	59	192	6
TAP	60	0	5
TAP	60	96	5
TAP	60	192	4
TAP	60	192	5
TAP	60	288	4
TAP	60	288	5
TAP	61	0	6
TAP	61	96	7
TAP	61	192	0
TAP	61	192	6
TAP	62	0	1
TAP	62	96	1
TAP	62	192	0
TAP	62	192	1
TAP	62	288	0
TAP	62	288	1
TAP	63	0	2
TAP	63	96	3
TAP	63	192	2
TAP	63	192	4
HLD	64	0	5	96
TAP	64	96	4
TAP	64	192	4
TAP	64	192	5
HLD	65	0	2	96
TAP	65	96	3
TAP	65	192	2
TAP	65	192	3
TAP	66	0	4
TAP	66	96	4
TAP	66	192	3
TAP	66	288	3
HLD	67	0	3	96
HLD	67	0	4	96
XTP	67	192	2
XTP	67	192	5
HLD	68	0	2	384
HLD	69	0	3	384
HLD	70	0	4	384
TAP	71	0	5
TAP	71	192	4
TAP	71	192	5
TAP	72	0	6
TAP	72	96	6
TAP	72	192	6
TAP	72	192	7
TAP	73	0	1
TAP	73	96	1
TAP	73	192	0
TAP	73	192	1
TAP	74	0	6
TAP	74	96	6
TAP	74	192	7
TAP	74	288	7
XTP	75	0	0
XTP	75	96	1
XTP	75	192	2
XTP	75	288	3
STR	76	0	4
SI_	76	0	4	96	192	7
STR	77	0	0
SI_	77	0	0	96	192	4
STR	78	0	5
SI_	78	0	5	96	192	0
TAP	79	0	1
TAP	79	192	0
TAP	79	192	7
TAP	80	0	1
TAP	80	192	2
TAP	81	0	3
TAP	81	192	4
HLD	82	0	3	192
HLD	82	0	4	192
TAP	83	0	2
TAP	83	0	5
TAP	83	192	1
TAP	83	192	6
TAP	84	0	5
TAP	84	96	5
TAP	84	192	4
TAP	84	288	4
TAP	85	0	3
TAP	85	96	3
TAP	85	192	2
TAP	85	288	2
TAP	86	0	1
TAP	86	96	1
TAP	86	192	0
TAP	86	288	0
TAP	87	0	7
TAP	87	96	7
TAP	87	192	0
TAP	87	192	6
TAP	88	0	6
TAP	88	96	6
TAP	88	192	7
TAP	88	288	7
TAP	89	0	0
TAP	89	96	0
TAP	89	192	1
TAP	89	288	1
TAP	90	0	2
TAP	90	96	2
TAP	90	192	3
TAP	90	288	3
TAP	91	0	4
TAP	91	96	4
TAP	91	192	3
TAP	91	192	5
TAP	92	0	6
TAP	92	96	6
TAP	92	192	6
TAP	92	192	7
TAP	92	288	6
TAP	92	288	7
TAP	93	0	5
TAP	93	96	5
TAP	93	192	4
TAP	93	192	5
TAP	93	288	4
TAP	93	288	5
TAP	94	0	2
TAP	94	96	2
TAP	94	192	2
TAP	94	192	3
TAP	94	288	2
TAP	94	288	3
TAP	95	0	1
TAP	95	96	0
TAP	95	96	7
TAP	95	192	1
TAP	95	192	6
TAP	96	0	5
TAP	96	96	5
TAP	96	192	4
TAP	96	192	5
TAP	96	288	4
TAP	96	288	5
TAP	97	0	2
TAP	97	96	2
TAP	97	192	2
TAP	97	192	3
TAP	97	288	2
TAP	97	288	3
TAP	98	0	1
TAP	98	96	1
TAP	98	192	0
TAP	98	192	1
TAP	98	288	0
TAP	98	288	1
TAP	99	0	7
TAP	99	96	6
TAP	99	192	5
TAP	99	288	4
BST	100	0	3
SCL	100	0	3	96	1056	4
TTP	104	0	3	E	0	L1
TTP	105	0	4	E	0	L1
TTP	106	0	5	E	0	L1
THO	107	0	0	768	C	0	L1
STR	110	0	7
SCL	110	0	7	96	480	2
STR	112	0	1
SSL	112	0	1	96	480	5
TAP	115	0	6
TAP	115	96	6
TAP	115	192	6
TAP	115	192	7
TAP	116	0	1
TAP	116	96	1
TAP	116	192	0
TAP	116	192	1
TAP	117	0	6
TAP	117	96	6
TAP	117	192	6
TAP	117	192	7
TAP	118	0	1
TAP	118	96	1
TAP	118	192	0
TAP	118	288	0
TAP	119	0	7
TAP	119	96	7
TAP	119	192	0
TAP	119	192	6
TAP	120	0	5
TAP	120	96	5
TAP	120	192	4
TAP	120	192	5
TAP	121	0	2
TAP	121	96	2
TAP	121	192	2
TAP	121	192	3
TAP	122	0	5
TAP	122	96	5
TAP	122	192	4
TAP	122	288	4
TAP	123	0	3
TAP	123	96	3
TAP	123	192	2
TAP	123	192	4
TAP	124	0	1
TAP	124	96	1
TAP	124	192	0
TAP	124	192	1
TAP	125	0	6
TAP	125	96	6
TAP	125	192	6
TAP	125	192	7
TAP	126	0	1
TAP	126	96	1
TAP	126	192	0
TAP	126	288	0
TAP	127	0	6
TAP	127	0	7
TAP	127	192	4
TAP	127	192	5
TAP	128	0	2
TAP	128	96	2
TAP	128	192	2
TAP	128	192	3
TAP	129	0	5
TAP	129	96	5
TAP	129	192	4
TAP	129	192	5
TAP	130	0	6
TAP	130	96	6
TAP	130	192	7
TAP	130	288	7
TAP	131	0	0
TAP	131	96	0
TAP	131	192	1
TAP	131	192	7
XTP	132	0	2
XTP	132	0	3
XTP	132	192	4
XTP	132	192	5
XTP	133	0	6
XTP	133	0	7
XTP	133	192	0
XTP	133	192	1
TAP	134	0	2
TAP	134	96	2
TAP	134	192	3
TAP	134	288	3
TAP	135	0	4
TAP	135	96	3
TAP	135	96	4
TAP	135	192	2
TAP	135	192	5
STR	136	0	6
SI_	136	0	6	96	192	3
STR	137	0	2
SI_	137	0	2	96	192	7
TAP	138	0	6
TAP	138	96	6
TAP	138	192	6
TAP	138	192	7
TAP	139	0	1
TAP	139	96	1
TAP	139	192	0
TAP	139	192	1
STR	140	0	1
SI_	140	0	1	96	192	4
STR	141	0	5
SI_	141	0	5	96	192	0
TAP	142	0	1
TAP	142	96	1
TAP	142	192	0
TAP	142	192	1
TAP	143	0	6
TAP	143	96	0
TAP	143	96	7
TAP	143	192	1
TAP	143	192	6
TAP	144	0	5
TAP	144	96	4
TAP	144	192	3
TAP	144	288	2
TAP	145	0	1
TAP	145	96	0
TAP	145	192	7
TAP	145	288	6
TAP	146	0	4
TAP	146	0	5
TAP	146	96	4
TAP	146	96	5
TAP	146	192	2
TAP	146	192	3
TAP	146	288	2
TAP	146	288	3
TAP	147	0	0
TAP	147	0	1
TAP	147	192	6
TAP	147	192	7
BST	148	0	0
SXL	148	0	0	96	576	3
BST	148	0	7
SXR	148	0	7	96	576	4

T_REC_TAP	364
T_REC_BRK	2
T_REC_XTP	14
T_REC_HLD	40
T_REC_XHO	0
T_REC_STR	16
T_REC_BST	3
T_REC_XST	0
T_REC_TTP	7
T_REC_THO	1
T_REC_SLD	19
T_REC_ALL	466
T_NUM_TAP	401
T_NUM_BRK	5
T_NUM_HLD	41
T_NUM_SLD	19
T_NUM_ALL	466
T_JUDGE_TAP	406
T_JUDGE_HLD	72
T_JUDGE_SLD	19
T_JUDGE_ALL	497
TTM_EACHPAIRS	100
TTM_SCR_TAP	200500
TTM_SCR_BRK	13000
TTM_SCR_HLD	41000
TTM_SCR_SLD	28500
TTM_SCR_ALL	283000
TTM_SCR_S	274050
TTM_SCR_SS	282500
TTM_RAT_ACV	10017

