VERSION	0.00.00	1.03.00
FES_MODE	0
BPM_DEF	240.000	240.000	240.000	240.000
MET_DEF	4	4
RESOLUTION	384
CLK_DEF	384
COMPATIBLE_CODE	MA2

BPM	0	0	240.000
MET	0	0	4	4

XTP	2	0	0
TAP	4	0	0
TAP	6	0	7
TAP	8	0	0
TAP	8	0	7
BRK	9	0	0
BRK	9	0	7
TAP	10	0	0
TAP	11	0	0
TAP	12	0	1
TAP	14	0	2
TAP	15	0	2
TAP	16	0	3
HLD	18	0	3	384
HLD	18	0	4	384
TAP	20	0	4
TAP	21	0	4
TAP	22	0	4
TAP	24	0	5
TAP	25	0	5
TAP	26	0	5
TAP	28	0	6
TAP	29	0	6
TAP	30	0	6
TAP	32	0	7
TAP	33	0	7
TAP	34	0	0
TAP	34	0	7
STR	36	0	7
SI_	36	0	7	96	480	4
TAP	39	0	0
STR	40	0	0
SI_	40	0	0	96	480	3
TAP	43	0	3
TAP	43	0	4
TTP	44	0	4	B	0	L1
TTP	45	0	3	B	0	L1
TTP	46	0	5	B	0	L1
TTP	47	0	2	B	0	L1
THO	48	0	0	768	C	1	L1
TAP	52	0	7
TAP	52	192	7
TAP	53	0	7
TAP	54	0	6
TAP	54	192	6
TAP	55	0	6
TAP	56	0	5
TAP	56	192	5
TAP	57	0	5
TAP	58	0	4
TAP	58	192	4
TAP	59	0	3
TAP	59	0	4
TAP	60	0	3
TAP	60	192	3
TAP	61	0	3
TAP	62	0	2
TAP	62	192	2
TAP	63	0	2
TAP	64	0	1
TAP	64	192	1
TAP	65	0	1
TAP	66	0	0
TAP	66	192	0
BRK	67	0	0
BRK	67	0	7
TTP	68	0	0	B	0	L1
TTP	69	0	1	B	0	L1
TTP	70	0	2	B	0	L1
TTP	71	0	3	B	0	L1
TTP	72	0	4	B	0	L1
TTP	73	0	5	B	0	L1
TTP	74	0	6	B	0	L1
TTP	75	0	0	C	0	L1
XHO	76	0	0	384
XHO	76	0	7	384
XHO	78	0	0	384
XHO	78	0	1	384
XHO	80	0	6	384
XHO	80	0	7	384
XTP	82	0	0
XTP	82	0	7
BRK	83	0	0
BRK	83	0	7
TAP	84	0	0
TAP	84	192	0
TAP	85	0	1
TAP	85	192	1
TAP	86	0	2
TAP	86	192	2
TAP	87	0	2
TAP	87	0	3
TAP	87	192	2
TAP	87	192	3
TAP	88	0	4
TAP	88	192	4
TAP	89	0	5
TAP	89	192	5
TAP	90	0	6
TAP	90	192	6
TAP	91	0	6
TAP	91	0	7
TAP	92	0	7
TAP	92	192	6
TAP	93	0	5
TAP	93	192	4
TAP	94	0	3
TAP	94	192	2
TAP	95	0	0
TAP	95	0	1
TAP	95	192	0
TAP	95	192	1
TAP	96	0	0
TAP	96	192	1
TAP	97	0	2
TAP	97	192	3
TAP	98	0	4
TAP	98	192	5
TAP	99	0	6
TAP	99	192	0
TAP	99	192	7
BRK	100	0	0
BRK	100	0	7
TTP	102	0	0	B	0	L1
TTP	102	0	7	B	0	L1
TTP	103	0	1	B	0	L1
TTP	103	0	6	B	0	L1
TTP	104	0	2	B	0	L1
TTP	104	0	5	B	0	L1
TTP	105	0	3	B	0	L1
TTP	105	0	4	B	0	L1
TTP	106	0	2	B	0	L1
TTP	106	0	5	B	0	L1
THO	107	0	0	1152	C	1	L1
HLD	112	0	0	384
XTP	115	0	0
XTP	115	0	7
XTP	115	192	0
XTP	115	192	7
TAP	116	0	1
TAP	116	192	1
TAP	117	0	2
TAP	117	192	2
TAP	118	0	3
TAP	118	192	3
TAP	119	0	3
TAP	119	0	4
TAP	120	0	4
TAP	120	192	4
TAP	121	0	5
TAP	121	192	5
TAP	122	0	6
TAP	122	192	6
TAP	123	0	0
TAP	123	0	7
TAP	124	0	7
TAP	124	192	7
TAP	125	0	6
TAP	125	192	6
TAP	126	0	5
TAP	126	192	5
TAP	127	0	3
TAP	127	0	4
TAP	127	192	3
TAP	127	192	4
TAP	128	0	2
TAP	128	192	2
TAP	129	0	1
TAP	129	192	1
TAP	130	0	0
TAP	130	192	0
TAP	131	0	0
TAP	131	0	7
TAP	131	192	0
TAP	131	192	7
TAP	132	0	0
TAP	132	192	1
TAP	133	0	2
TAP	133	0	3
TAP	133	192	2
TAP	133	192	3
TAP	134	0	4
TAP	134	192	5
TAP	135	0	6
TAP	135	0	7
TAP	135	192	6
TAP	135	192	7
TAP	136	0	5
TAP	136	96	5
TAP	136	192	5
TAP	137	0	4
TAP	137	0	5
TAP	137	192	4
TAP	137	192	5
TAP	138	0	3
TAP	138	96	3
TAP	138	192	3
TAP	139	0	2
TAP	139	0	3
TAP	139	192	2
TAP	139	192	3
TAP	140	0	1
TAP	140	96	1
TAP	140	192	1
TAP	141	0	0
TAP	141	0	1
TAP	141	192	0
TAP	141	192	1
TAP	142	0	7
TAP	142	96	7
TAP	142	192	7
TAP	143	0	0
TAP	143	0	7
TAP	143	192	0
TAP	143	192	7
TAP	144	0	1
TAP	144	96	1
TAP	144	192	1
TAP	145	0	2
TAP	145	96	2
TAP	145	192	2
TAP	146	0	3
TAP	146	0	4
TAP	146	96	3
TAP	146	96	4
TAP	146	192	3
TAP	146	192	4
XTP	147	0	2
XTP	147	0	5
TTP	148	0	0	C	1	L1
TTP	148	0	1	B	0	L1
TTP	148	0	6	B	0	L1

T_REC_TAP	175
T_REC_BRK	8
T_REC_XTP	9
T_REC_HLD	3
T_REC_XHO	6
T_REC_STR	2
T_REC_BST	0
T_REC_XST	0
T_REC_TTP	25
T_REC_THO	2
T_REC_SLD	2
T_REC_ALL	232
T_NUM_TAP	211
T_NUM_BRK	8
T_NUM_HLD	11
T_NUM_SLD	2
T_NUM_ALL	232
T_JUDGE_TAP	219
T_JUDGE_HLD	56
T_JUDGE_SLD	2
T_JUDGE_ALL	277
TTM_EACHPAIRS	43
TTM_SCR_TAP	105500
TTM_SCR_BRK	20800
TTM_SCR_HLD	11000
TTM_SCR_SLD	3000
TTM_SCR_ALL	140300
TTM_SCR_S	135350
TTM_SCR_SS	139500
TTM_RAT_ACV	10057

