VERSION	0.00.00	1.03.00
FES_MODE	0
BPM_DEF	171.000	171.000	171.000	171.000
MET_DEF	4	4
RESOLUTION	384
CLK_DEF	384
COMPATIBLE_CODE	MA2

BPM	0	0	171.000
MET	0	0	4	4

HLD	2	0	4	864
TAP	2	96	3
TAP	2	288	3
TAP	3	96	3
TAP	3	288	3
TAP	4	96	3
TAP	4	288	3
TAP	4	288	4
HLD	4	336	3	96
TAP	4	336	4
TAP	5	48	4
STR	5	96	2
SI_	5	96	2	96	48	4
STR	5	96	5
SI_	5	96	5	96	48	3
TAP	5	144	2
TAP	5	144	5
TAP	5	192	2
TAP	5	192	5
TAP	5	288	1
TAP	5	288	6
TAP	6	0	2
TAP	6	96	3
TAP	6	96	4
TAP	6	192	5
TAP	6	240	5
TAP	6	336	4
TAP	6	336	6
TAP	7	48	3
TAP	7	48	7
TTP	7	144	3	E	0	M1
TTP	7	160	3	B	0	M1
TTP	7	176	5	B	0	M1
TTP	7	192	6	E	0	M1
TAP	7	240	0
TAP	7	288	0
TAP	7	336	1
TAP	7	336	7
TAP	8	48	2
TAP	8	96	2
TAP	8	144	3
TAP	8	192	1
TAP	8	240	1
TAP	8	288	4
TAP	8	336	3
TAP	8	336	5
TAP	9	48	6
TAP	9	96	6
TAP	9	144	4
TAP	9	192	5
TAP	9	240	5
TAP	9	288	2
TAP	9	336	2
TAP	10	0	3
TAP	10	96	1
TAP	10	96	4
TAP	10	192	0
TAP	10	240	0
TAP	10	336	1
TAP	10	336	3
TAP	11	48	2
TAP	11	48	4
TTP	11	144	5	E	0	M1
TTP	11	160	4	B	0	M1
TTP	11	176	2	B	0	M1
TTP	11	192	2	E	0	M1
TAP	11	240	7
TAP	11	288	7
TAP	11	336	0
TAP	11	336	6
TAP	12	48	5
TAP	12	96	5
TAP	12	144	3
TAP	12	192	4
TAP	12	240	2
TAP	12	288	1
HLD	12	336	0	96
TAP	12	336	4
TAP	13	48	3
TAP	13	96	3
TAP	13	144	2
TAP	13	192	4
TAP	13	240	5
TAP	13	288	2
TAP	13	288	6
HLD	14	0	3	96
HLD	14	0	5	144
TAP	14	144	3
HLD	14	192	2	144
HLD	14	192	4	96
TAP	14	336	4
HLD	15	0	1	96
HLD	15	0	5	144
TAP	15	144	1
HLD	15	192	2	144
HLD	15	192	6	96
TAP	15	336	6
TAP	16	0	3
TAP	16	0	5
TAP	16	48	3
TAP	16	48	5
TTP	16	144	3	E	0	M1
TTP	16	144	6	E	0	M1
TTP	16	240	2	E	0	M1
TTP	16	240	5	E	0	M1
TTP	16	336	3	E	0	M1
TTP	16	336	6	E	0	M1
TAP	17	48	4
TAP	17	48	5
TAP	17	144	4
TAP	17	144	5
TAP	17	192	3
STR	17	192	6
SI_	17	192	6	96	48	3
TAP	17	288	2
XTP	18	0	1
HLD	18	48	3	48
HLD	18	96	2	48
XTP	18	144	4
XHO	18	192	3	48
HLD	18	240	4	48
HLD	18	288	3	48
XTP	18	336	5
XHO	19	0	4	48
HLD	19	48	5	48
HLD	19	96	4	48
XTP	19	144	6
XHO	19	192	3	48
HLD	19	240	7	48
HLD	19	288	3	48
XTP	19	336	7
XTP	20	0	4
XTP	20	0	6
TAP	20	48	4
TAP	20	48	6
TTP	20	144	3	E	0	M1
TTP	20	144	6	E	0	M1
TTP	20	240	2	E	0	M1
TTP	20	240	5	E	0	M1
TTP	20	336	3	E	0	M1
TTP	20	336	6	E	0	M1
HLD	21	48	4	96
TAP	21	48	5
TAP	21	144	5
TAP	21	192	3
TAP	21	192	6
TAP	21	288	1
TAP	21	288	4
STR	22	0	2
SUL	22	0	2	96	192	4
TAP	22	0	3
TAP	22	144	5
TAP	22	192	5
TAP	22	288	6
STR	23	0	7
SCL	23	0	7	96	96	4
TAP	23	96	4
STR	23	192	0
SCR	23	192	0	96	96	3
TAP	23	288	3
STR	24	0	5
SLR	24	0	5	96	192	3
TAP	24	144	2
TAP	24	192	2
STR	24	288	1
SI_	24	288	1	96	48	5
XTP	25	0	1
STR	25	0	5
SI_	25	0	5	96	48	3
STR	25	96	3
SI_	25	96	3	96	48	7
XTP	25	96	5
TAP	25	192	2
XTP	25	192	3
TAP	25	288	0
XTP	25	288	6
HLD	26	0	1	72
TAP	26	72	0
TAP	26	96	1
TAP	26	144	7
TAP	26	192	3
TAP	26	192	6
TAP	26	240	5
TAP	26	288	2
TAP	26	288	4
TAP	26	336	1
HLD	27	0	0	72
TAP	27	72	7
TAP	27	96	0
TAP	27	144	1
TAP	27	192	2
TAP	27	192	4
TAP	27	240	5
TAP	27	288	4
STR	27	288	6
SI_	27	288	6	96	48	2
BRK	28	0	0
TTP	28	4	0	C	0	M1
TAP	29	48	2
TAP	29	48	5
TAP	29	96	3
TAP	29	96	4
TAP	29	144	1
TAP	29	144	6
TAP	29	240	5
STR	29	288	5
SI_	29	288	5	96	48	3
TAP	29	336	3
XST	30	0	2
SCL	30	0	2	96	48	0
TAP	30	0	5
TAP	30	96	2
XST	30	96	3
SI_	30	96	3	96	48	7
XTP	30	192	0
TAP	30	192	3
STR	30	240	0
SXL	30	240	0	96	120	0
HLD	30	336	6	96
TTP	31	144	1	B	0	M1
TTP	31	144	2	B	0	M1
TTP	31	144	2	E	0	M1
TTP	31	144	4	B	0	M1
TTP	31	144	5	B	0	M1
TTP	31	144	5	E	0	M1
TAP	31	240	7
TAP	31	288	6
TAP	31	336	0
TAP	31	336	5
STR	32	48	1
SI_	32	48	1	96	48	3
TAP	32	96	3
TAP	32	144	1
TAP	32	192	4
STR	32	240	5
SCR	32	240	5	96	48	0
XTP	32	336	4
TAP	33	48	1
TAP	33	96	2
TAP	33	144	3
TAP	33	144	5
TAP	33	240	2
STR	33	288	2
SI_	33	288	2	96	48	4
TAP	33	336	4
TAP	34	0	2
XST	34	0	5
SCR	34	0	5	96	48	7
XST	34	96	4
SI_	34	96	4	96	48	0
TAP	34	96	5
TAP	34	192	4
XTP	34	192	7
STR	34	240	7
SXR	34	240	7	96	120	7
HLD	34	336	1	96
TTP	35	144	2	B	0	M1
TTP	35	144	3	B	0	M1
TTP	35	144	3	E	0	M1
TTP	35	144	5	B	0	M1
TTP	35	144	6	B	0	M1
TTP	35	144	6	E	0	M1
TAP	35	240	0
TAP	35	288	1
TAP	35	336	2
HLD	35	336	7	96
TAP	36	48	5
STR	36	96	4
SI_	36	96	4	96	48	0
STR	36	144	3
SI_	36	144	3	96	48	7
BRK	36	336	0
BRK	36	336	6
TAP	37	48	1
TAP	37	48	5
TAP	37	96	2
TAP	37	96	4
TAP	37	144	1
TAP	37	144	5
STR	37	192	2
SCL	37	192	2	96	48	7
TAP	37	192	4
STR	37	288	3
SXR	37	288	3	96	96	3
STR	38	0	3
SXL	38	0	3	96	96	3
TTP	38	0	4	B	0	M1
TTP	38	0	5	B	0	M1
TTP	38	96	2	B	0	M1
TTP	38	96	2	E	0	M1
TAP	38	192	7
STR	38	240	7
SF_	38	240	7	96	48	3
BRK	38	336	7
TAP	39	48	1
TAP	39	96	0
TAP	39	144	7
XTP	39	192	4
XTP	39	192	6
TAP	39	240	3
STR	39	288	2
SXR	39	288	2	96	144	4
STR	39	288	5
SXL	39	288	5	96	144	4
TAP	40	0	2
TAP	40	0	5
TAP	40	192	3
TAP	40	192	5
STR	40	240	3
SI_	40	240	3	96	48	7
STR	40	240	5
SI_	40	240	5	96	48	2
XTP	41	48	0
TAP	41	96	1
TAP	41	144	4
XTP	41	192	1
TAP	41	240	2
STR	41	288	3
SI_	41	288	3	96	48	7
TAP	41	336	4
TAP	42	0	3
STR	42	0	5
SCL	42	0	5	96	48	2
HLD	42	96	0	96
TAP	42	96	5
TAP	42	192	7
STR	42	240	1
SUL	42	240	1	96	48	5
STR	42	240	6
SUR	42	240	6	96	48	2
BRK	42	336	1
BRK	42	336	6
XTP	43	48	4
TAP	43	96	3
TAP	43	144	2
TAP	43	144	4
TAP	43	192	1
TAP	43	240	0
TAP	43	288	1
TAP	43	288	7
STR	43	336	2
SCL	43	336	2	96	96	7
TAP	43	336	6
TAP	44	48	6
TAP	44	96	5
TAP	44	144	4
TAP	44	192	3
TAP	44	240	2
TAP	44	288	1
HLD	44	336	0	96
TAP	44	336	7
TAP	45	48	7
STR	45	96	1
SI_	45	96	1	96	48	4
STR	45	96	6
SI_	45	96	6	96	48	3
TAP	45	144	1
TAP	45	144	6
TAP	45	192	1
TAP	45	192	6
BRK	45	288	1
BRK	45	288	6
TAP	46	0	2
TAP	46	0	5
TAP	46	96	3
TAP	46	96	4
TAP	46	192	5
HLD	46	240	4	96
TAP	46	240	6
TAP	46	336	7
TAP	47	48	3
TAP	47	48	6
TTP	47	144	3	E	0	M1
TTP	47	160	3	B	0	M1
TTP	47	176	5	B	0	M1
TTP	47	192	6	E	0	M1
TAP	47	240	0
TAP	47	288	0
TAP	47	336	1
TAP	47	336	7
TAP	48	48	2
TAP	48	96	2
TAP	48	144	3
HLD	48	192	1	96
TAP	48	240	2
TAP	48	288	3
TAP	48	336	2
TAP	48	336	4
TAP	49	48	6
TAP	49	96	4
HLD	49	144	5	96
TAP	49	192	4
TAP	49	240	3
TAP	49	288	2
TAP	49	336	2
TAP	50	0	1
TAP	50	0	3
TAP	50	96	2
TAP	50	96	4
TAP	50	192	5
TAP	50	240	4
HLD	50	240	6	96
TAP	50	336	5
TAP	51	48	3
TAP	51	48	7
TTP	51	144	3	E	0	M1
TTP	51	160	3	B	0	M1
TTP	51	176	5	B	0	M1
TTP	51	192	6	E	0	M1
TAP	51	240	0
TAP	51	288	0
TAP	51	336	1
TAP	51	336	7
TAP	52	48	5
TAP	52	96	4
TAP	52	144	6
TAP	52	192	1
TAP	52	240	3
TAP	52	288	2
HLD	52	336	4	96
TTP	53	48	0	E	0	M1
THO	53	96	0	96	C	0	M1
STR	53	192	7
SI_	53	192	7	96	48	4
TAP	53	288	0
HLD	54	0	1	96
HLD	54	144	2	96
HLD	54	144	3	96
TAP	54	288	2
TTP	54	288	3	B	0	M1
HLD	55	0	5	96
HLD	55	144	4	96
HLD	55	144	6	96
TTP	55	288	4	B	0	M1
TAP	55	288	6
TAP	56	0	3
TAP	56	0	7
TAP	56	96	4
TAP	56	96	6
HLD	56	192	2	72
TAP	56	264	3
TAP	56	288	2
TAP	56	336	1
TAP	57	0	0
HLD	57	0	5	72
TAP	57	72	4
TAP	57	96	5
TAP	57	144	6
TAP	57	192	1
TAP	57	192	7
XTP	57	240	0
XST	57	288	0
SI_	57	288	0	96	48	2
STR	58	0	3
SI_	58	0	3	96	48	5
SI_	58	0	3	96	48	7
TAP	58	192	0
TAP	58	240	0
TAP	58	288	6
TAP	58	336	6
HLD	59	0	5	48
HLD	59	48	4	48
HLD	59	96	3	48
HLD	59	144	2	48
STR	59	192	3
SI_	59	192	3	96	48	5
TTP	59	288	0	C	0	M1
STR	60	0	0
SI_	60	0	0	96	48	2
TTP	60	96	4	E	0	M1
STR	60	192	4
SI_	60	192	4	96	48	7
HLD	60	288	0	144
TAP	61	48	7
TAP	61	96	6
TAP	61	144	5
BRK	61	192	0
BRK	61	192	4
BRK	61	240	1
BRK	61	240	3
BRK	61	288	2
BRK	61	288	4
BRK	61	336	3
BRK	61	336	5
STR	62	0	2
SUL	62	0	2	96	144	4
TAP	62	0	6
TAP	62	144	7
TAP	62	192	7
TAP	62	288	3
TAP	62	288	6
STR	63	0	5
SCL	63	0	5	96	96	2
TAP	63	96	2
STR	63	192	1
SCL	63	192	1	96	96	6
TAP	63	288	6
STR	64	0	5
SUR	64	0	5	96	144	3
TAP	64	144	0
TAP	64	192	0
STR	64	288	1
SI_	64	288	1	96	48	5
TAP	64	288	4
XTP	65	0	1
STR	65	0	5
SI_	65	0	5	96	48	3
STR	65	96	3
SI_	65	96	3	96	48	7
XTP	65	96	5
TAP	65	192	2
XTP	65	192	3
TAP	65	288	0
XTP	65	288	6
HLD	66	0	1	72
TAP	66	72	0
TAP	66	96	2
TAP	66	144	7
TAP	66	192	3
TAP	66	192	6
TAP	66	240	5
TAP	66	288	1
TAP	66	288	4
TAP	66	336	0
HLD	67	0	6	72
TAP	67	72	7
TAP	67	96	5
TAP	67	144	0
TAP	67	192	1
TAP	67	192	3
TAP	67	240	2
STR	67	288	3
SI_	67	288	3	96	48	7
TAP	67	288	4
BRK	68	0	6
TTP	68	4	0	C	0	M1
TAP	69	48	2
TAP	69	48	5
TAP	69	96	3
TAP	69	96	4
TAP	69	144	1
TAP	69	144	6
TAP	69	240	5
STR	69	288	5
SI_	69	288	5	96	48	3
TAP	69	336	3
XST	70	0	2
SCL	70	0	2	96	48	0
TAP	70	0	5
TAP	70	96	2
XST	70	96	3
SCR	70	96	3	96	48	6
XTP	70	192	0
TAP	70	192	3
STR	70	240	0
SXR	70	240	0	96	120	0
HLD	70	336	4	96
TTP	71	144	2	B	0	M1
TTP	71	144	3	B	0	M1
TTP	71	144	3	E	0	M1
TTP	71	144	6	B	0	M1
TTP	71	144	7	B	0	M1
TTP	71	144	7	E	0	M1
TAP	71	240	0
TAP	71	288	1
TAP	71	336	2
TAP	71	336	7
STR	72	48	6
SI_	72	48	6	96	48	0
TAP	72	96	4
TAP	72	144	6
TAP	72	192	1
STR	72	240	2
SCR	72	240	2	96	48	5
HLD	72	336	6	96
TAP	73	48	7
TAP	73	96	0
TAP	73	144	1
TAP	73	144	4
TAP	73	240	2
STR	73	288	2
SI_	73	288	2	96	48	4
TAP	73	336	4
TAP	74	0	2
XST	74	0	5
SCR	74	0	5	96	48	7
XST	74	96	4
SCL	74	96	4	96	48	1
TAP	74	96	5
TAP	74	192	4
XTP	74	192	7
STR	74	240	7
SXL	74	240	7	96	120	7
HLD	74	336	3	96
TTP	75	144	0	B	0	M1
TTP	75	144	1	B	0	M1
TTP	75	144	1	E	0	M1
TTP	75	144	4	B	0	M1
TTP	75	144	5	B	0	M1
TTP	75	144	5	E	0	M1
TAP	75	240	7
TAP	75	288	6
HLD	75	336	0	96
TAP	75	336	5
TAP	76	48	2
STR	76	96	3
SI_	76	96	3	96	48	7
STR	76	144	4
SI_	76	144	4	96	48	0
TAP	76	192	3
TAP	76	240	4
BRK	76	336	1
BRK	76	336	7
TAP	77	48	2
TAP	77	48	6
TAP	77	96	3
TAP	77	96	5
TAP	77	144	2
TAP	77	144	6
TAP	77	192	3
STR	77	192	5
SCR	77	192	5	96	48	0
STR	77	288	4
SXR	77	288	4	96	96	4
STR	78	0	4
SXL	78	0	4	96	96	4
TTP	78	0	5	B	0	M1
TTP	78	0	6	E	0	M1
TTP	78	96	2	B	0	M1
TTP	78	96	3	B	0	M1
TAP	78	192	7
STR	78	240	7
SF_	78	240	7	96	48	3
BRK	78	336	7
TAP	79	48	1
TAP	79	96	0
TAP	79	144	7
XTP	79	192	4
XTP	79	192	6
TAP	79	240	3
STR	79	288	2
SXR	79	288	2	96	144	4
STR	79	288	5
SXL	79	288	5	96	144	4
TAP	80	0	2
TAP	80	0	5
TAP	80	192	3
TAP	80	192	5
STR	80	240	3
SI_	80	240	3	96	48	7
STR	80	240	5
SCL	80	240	5	96	48	2
XTP	81	48	0
TAP	81	96	1
TAP	81	144	4
XTP	81	192	1
TAP	81	240	2
STR	81	288	3
SI_	81	288	3	96	48	7
TAP	81	336	4
TAP	82	0	3
STR	82	0	5
SV_	82	0	5	96	48	2
HLD	82	96	0	96
TAP	82	96	5
TAP	82	192	7
STR	82	240	1
SUL	82	240	1	96	48	5
STR	82	240	6
SUR	82	240	6	96	48	2
BRK	82	336	1
BRK	82	336	6
XTP	83	48	4
TAP	83	96	3
TAP	83	144	2
TAP	83	144	4
TAP	83	192	1
TAP	83	240	0
TAP	83	288	1
TAP	83	288	7
STR	83	336	2
SUR	83	336	2	96	96	7
TAP	83	336	6
TAP	84	48	5
TAP	84	96	4
TAP	84	144	3
TAP	84	192	0
TAP	84	192	4
TAP	84	240	1
TAP	84	288	2
TAP	84	288	6
HLD	84	336	7	96
TAP	85	48	0
STR	85	96	1
SI_	85	96	1	96	48	4
STR	85	96	6
SI_	85	96	6	96	48	3
TAP	85	144	1
TAP	85	144	6
TAP	85	192	1
TAP	85	192	6
BRK	85	288	1
BRK	85	288	6
HLD	86	0	2	96
STR	86	0	5
SI_	86	0	5	96	48	3
TAP	86	96	5
TAP	86	192	0
STR	86	240	1
SXL	86	240	1	96	192	7
TAP	86	240	7
TTP	86	336	2	B	0	M1
TTP	86	336	3	B	0	M1
TTP	86	336	3	E	0	M1
TAP	87	48	7
XHO	87	144	6	96
TAP	87	240	4
TAP	87	288	3
HLD	87	336	2	96
TAP	87	336	4
TAP	88	48	3
STR	88	96	0
SLR	88	96	0	96	96	7
TAP	88	144	3
TAP	88	192	4
STR	88	240	5
SI_	88	240	5	96	48	2
STR	88	336	0
SI_	88	336	0	96	48	5
STR	89	48	4
SI_	89	48	4	96	48	0
TAP	89	144	3
TAP	89	240	1
TAP	89	240	7
TAP	89	288	1
TAP	89	288	7
HLD	90	0	3	96
STR	90	0	6
SI_	90	0	6	96	48	0
TAP	90	96	6
TAP	90	192	3
STR	90	240	2
SXR	90	240	2	96	192	4
TAP	90	240	4
TTP	90	336	0	B	0	M1
TTP	90	336	1	B	0	M1
TTP	90	336	1	E	0	M1
TAP	91	48	4
XHO	91	144	5	96
TAP	91	240	7
TAP	91	288	0
HLD	91	336	1	96
TAP	91	336	7
TAP	92	48	3
STR	92	96	2
SUR	92	96	2	96	144	4
HLD	92	96	4	96
XTP	92	192	2
TAP	92	288	6
BST	92	336	7
SCL	92	336	7	96	48	4
BST	93	48	2
SCL	93	48	2	96	48	7
XTP	93	48	7
XTP	93	144	2
BRK	93	144	7
TAP	93	240	4
TAP	93	240	6
TAP	93	288	3
TAP	93	288	4
TAP	93	336	1
TAP	93	336	3
BST	94	0	0
SI_	94	0	0	96	720	3
BST	94	0	7
SI_	94	0	7	96	720	4

T_REC_TAP	395
T_REC_BRK	25
T_REC_XTP	34
T_REC_HLD	58
T_REC_XHO	5
T_REC_STR	79
T_REC_BST	4
T_REC_XST	9
T_REC_TTP	73
T_REC_THO	1
T_REC_SLD	93
T_REC_ALL	776
T_NUM_TAP	590
T_NUM_BRK	29
T_NUM_HLD	64
T_NUM_SLD	93
T_NUM_ALL	776
T_JUDGE_TAP	619
T_JUDGE_HLD	134
T_JUDGE_SLD	93
T_JUDGE_ALL	846
TTM_EACHPAIRS	156
TTM_SCR_TAP	295000
TTM_SCR_BRK	75400
TTM_SCR_HLD	64000
TTM_SCR_SLD	139500
TTM_SCR_ALL	573900
TTM_SCR_S	553900
TTM_SCR_SS	571000
TTM_RAT_ACV	10050

