VERSION	0.00.00	1.03.00
FES_MODE	0
BPM_DEF	171.000	171.000	171.000	171.000
MET_DEF	4	4
RESOLUTION	384
CLK_DEF	384
COMPATIBLE_CODE	MA2

BPM	0	0	171.000
MET	0	0	4	4

HLD	2	0	3	1056
TTP	2	96	5	E	0	M1
TTP	2	288	4	E	0	M1
TTP	3	96	5	E	0	M1
TTP	3	288	4	E	0	M1
TTP	4	96	5	E	0	M1
TTP	4	288	4	E	0	M1
XTP	5	48	2
XTP	5	48	5
XTP	5	96	2
XTP	5	96	5
XTP	5	144	2
XTP	5	144	5
XTP	5	192	2
XTP	5	192	5
BRK	5	288	0
BRK	5	288	7
TAP	6	0	3
TAP	6	0	5
TAP	6	96	6
TAP	6	192	7
TAP	6	240	7
TAP	6	336	0
STR	6	336	1
SCR	6	336	1	96	72	4
TAP	7	144	5
TAP	7	192	5
TAP	7	288	4
TAP	7	288	6
TAP	8	0	7
TAP	8	96	0
TAP	8	96	1
TAP	8	192	2
TAP	8	288	3
TAP	8	288	4
TAP	9	0	5
TAP	9	96	6
TAP	9	96	7
TAP	9	192	0
TAP	9	288	1
TAP	9	288	3
TAP	10	0	2
TAP	10	0	4
TAP	10	96	1
TAP	10	192	0
TAP	10	240	0
STR	10	336	6
SCL	10	336	6	96	72	3
TAP	10	336	7
TAP	11	144	2
TAP	11	192	2
TAP	11	288	1
TAP	11	288	3
TAP	12	0	0
TAP	12	96	6
TAP	12	96	7
TAP	12	192	5
TAP	12	288	3
TAP	12	288	4
TAP	13	0	2
TAP	13	0	5
TAP	13	96	1
TAP	13	96	6
BRK	13	192	0
BRK	13	192	7
TAP	14	0	5
HLD	14	48	5	624
TAP	14	144	4
TAP	14	192	4
TAP	14	288	3
TAP	15	0	2
TAP	15	96	1
TAP	15	192	0
HLD	15	288	7	384
TTP	16	0	7	E	0	M1
TTP	16	96	6	E	0	M1
TTP	16	192	5	E	0	M1
TTP	16	288	4	E	0	M1
TTP	17	0	3	E	0	M1
TTP	17	96	2	E	0	M1
TTP	17	192	1	E	0	M1
TTP	17	192	7	E	0	M1
TAP	18	0	2
HLD	18	48	2	624
TAP	18	144	3
TAP	18	192	3
TAP	18	288	4
TAP	19	0	5
TAP	19	96	6
TAP	19	192	7
HLD	19	288	0	384
TTP	20	0	1	E	0	M1
TTP	20	96	2	E	0	M1
TTP	20	192	3	E	0	M1
TTP	20	288	4	E	0	M1
TTP	21	0	2	B	0	M1
TTP	21	0	5	B	0	M1
TTP	21	96	1	B	0	M1
TTP	21	96	6	B	0	M1
TTP	21	192	1	E	0	M1
TTP	21	192	7	E	0	M1
STR	22	0	5
SCL	22	0	5	96	96	2
TAP	22	192	1
TAP	22	288	1
HLD	23	0	2	96
HLD	23	0	4	96
HLD	23	192	3	96
HLD	23	192	5	96
STR	24	0	2
SCR	24	0	2	96	96	5
TAP	24	192	6
TAP	24	288	6
XTP	25	0	5
XTP	25	0	6
XTP	25	96	3
XTP	25	96	4
XTP	25	192	1
XTP	25	192	2
XTP	25	288	0
XTP	25	288	7
HLD	26	0	6	96
HLD	26	96	5	96
HLD	26	192	4	96
HLD	26	288	3	96
HLD	27	0	2	96
HLD	27	96	1	96
HLD	27	192	0	96
TAP	27	288	7
TTP	28	0	0	C	1	M1
TTP	28	0	2	B	0	M1
TTP	28	0	5	B	0	M1
XTP	29	48	7
XTP	29	96	7
XHO	29	144	7	96
TAP	29	240	0
TAP	29	288	0
TAP	29	288	7
TAP	30	0	4
TAP	30	0	6
TAP	30	96	1
TAP	30	96	3
TAP	30	192	2
TAP	30	192	4
STR	30	240	2
SCL	30	240	2	96	72	7
STR	30	240	4
SCR	30	240	4	96	72	7
HLD	31	144	0	96
HLD	31	144	6	96
TAP	31	288	1
TAP	31	288	5
TAP	32	48	4
TAP	32	48	6
TAP	32	96	4
TAP	32	96	6
TAP	32	192	1
TAP	32	192	3
TAP	32	240	1
STR	32	240	3
SI_	32	240	3	96	48	7
TAP	33	48	0
TAP	33	96	0
TAP	33	144	1
TAP	33	144	7
TAP	33	240	2
TAP	33	240	4
TAP	33	288	2
TAP	33	288	4
TAP	34	0	1
TAP	34	0	3
TAP	34	96	4
TAP	34	96	6
TAP	34	192	3
TAP	34	192	5
STR	34	240	3
SI_	34	240	3	96	72	7
STR	34	240	5
SI_	34	240	5	96	72	1
HLD	35	144	2	96
HLD	35	144	6	96
TAP	35	288	1
TAP	35	288	5
TAP	36	48	4
TAP	36	48	6
TAP	36	96	4
TAP	36	96	6
TAP	36	192	1
TAP	36	192	3
TAP	36	240	1
TAP	36	240	3
XHO	36	336	2	96
XHO	36	336	4	96
HLD	37	96	3	48
HLD	37	96	5	48
TAP	37	192	2
TAP	37	192	4
TAP	37	288	0
TAP	37	288	7
BRK	38	0	5
BRK	38	0	6
BRK	38	96	1
BRK	38	96	2
TAP	38	192	3
TAP	38	192	5
TAP	38	240	3
TAP	38	240	5
BST	38	336	2
SXR	38	336	2	96	168	3
BST	38	336	4
SXL	38	336	4	96	168	3
TAP	39	288	3
TAP	40	0	3
TAP	40	0	4
TAP	40	96	4
TAP	40	96	5
STR	40	192	4
SXL	40	192	4	96	192	4
SXR	40	192	4	96	192	4
TAP	40	240	4
TAP	41	192	4
TAP	41	288	4
TAP	41	288	5
BRK	42	0	3
BRK	42	0	6
BRK	42	96	1
BRK	42	96	4
TAP	42	192	0
TAP	42	192	7
TAP	42	240	0
TAP	42	240	7
BST	42	336	1
SLL	42	336	1	96	168	3
BST	42	336	5
SLR	42	336	5	96	168	3
TAP	43	288	2
TAP	43	288	4
HLD	44	0	5	96
HLD	44	96	7	96
HLD	44	192	0	96
TAP	44	288	2
TAP	44	336	2
TTP	45	48	4	E	0	M1
TTP	45	96	3	E	0	M1
TTP	45	96	5	E	0	M1
TTP	45	144	2	E	0	M1
TTP	45	144	6	E	0	M1
TTP	45	192	1	E	0	M1
TTP	45	192	7	E	0	M1
BRK	45	288	0
BRK	45	288	7
TAP	46	0	2
TAP	46	0	4
TAP	46	96	1
TAP	46	192	0
TAP	46	240	0
STR	46	336	6
SCL	46	336	6	96	72	3
TAP	46	336	7
TAP	47	144	2
TAP	47	192	2
TAP	47	288	1
TAP	47	288	3
TAP	48	0	0
TAP	48	96	6
TAP	48	96	7
TAP	48	192	5
TAP	48	288	3
TAP	48	288	4
TAP	49	0	2
TAP	49	96	0
TAP	49	96	1
TAP	49	192	7
TAP	49	288	4
TAP	49	288	6
TAP	50	0	3
TAP	50	0	5
TAP	50	96	6
TAP	50	192	7
TAP	50	240	7
TAP	50	336	0
STR	50	336	1
SCR	50	336	1	96	72	4
TAP	51	144	5
TAP	51	192	5
TAP	51	288	4
TAP	51	288	6
TAP	52	0	7
TAP	52	96	0
TAP	52	96	1
TAP	52	192	2
TAP	52	192	3
TAP	52	288	1
TAP	52	288	4
TAP	52	336	1
TAP	52	336	4
TAP	53	48	3
TAP	53	48	6
TAP	53	96	3
TAP	53	96	6
TAP	53	192	0
TAP	53	192	7
TTP	53	288	0	C	0	M1
HLD	54	0	4	96
HLD	54	0	6	96
HLD	54	144	4	96
HLD	54	144	6	96
TAP	54	288	4
TAP	54	288	6
HLD	55	0	1	96
HLD	55	0	3	96
HLD	55	144	1	96
HLD	55	144	3	96
TAP	55	288	1
TAP	55	288	3
HLD	56	0	2	96
HLD	56	0	4	96
HLD	56	144	2	96
HLD	56	144	4	96
TAP	56	288	2
TAP	56	288	4
HLD	57	0	3	96
HLD	57	0	5	96
HLD	57	144	3	96
HLD	57	144	5	96
TAP	57	288	3
TAP	57	288	5
HLD	58	0	2	96
HLD	58	0	4	96
HLD	58	144	3	96
HLD	58	144	5	96
HLD	58	288	2	96
HLD	58	288	4	96
HLD	59	48	3	96
HLD	59	48	5	96
TAP	59	192	2
TAP	59	192	4
TAP	59	288	1
TAP	59	288	5
TTP	60	0	1	E	0	M1
TTP	60	0	5	E	0	M1
TTP	60	96	2	E	0	M1
TTP	60	96	6	E	0	M1
TTP	60	192	3	E	0	M1
TTP	60	192	7	E	0	M1
TTP	60	288	0	E	0	M1
TTP	60	288	4	E	0	M1
XTP	61	48	0
XTP	61	48	7
XTP	61	96	0
XTP	61	96	7
XTP	61	144	0
XTP	61	144	7
XTP	61	192	0
XTP	61	192	7
TAP	61	288	2
TAP	61	288	5
STR	62	0	1
SUR	62	0	1	96	96	5
TAP	62	192	6
TAP	62	288	6
HLD	63	0	3	96
HLD	63	0	5	96
HLD	63	192	2	96
HLD	63	192	4	96
STR	64	0	6
SUL	64	0	6	96	96	2
TAP	64	192	1
TAP	64	288	1
XTP	65	0	1
XTP	65	0	3
XTP	65	96	3
XTP	65	96	4
XTP	65	192	4
XTP	65	192	6
XTP	65	288	0
XTP	65	288	7
HLD	66	0	1	96
HLD	66	96	2	96
HLD	66	192	3	96
HLD	66	288	4	96
HLD	67	0	5	96
HLD	67	96	6	96
HLD	67	192	7	96
TAP	67	288	0
TTP	68	0	0	C	1	M1
TTP	68	0	2	B	0	M1
TTP	68	0	5	B	0	M1
XTP	69	48	0
XTP	69	96	0
XHO	69	144	0	96
TAP	69	240	7
TAP	69	288	0
TAP	69	288	7
BRK	70	0	1
BRK	70	0	3
BRK	70	96	4
BRK	70	96	6
TAP	70	192	3
TAP	70	192	5
STR	70	240	3
SCL	70	240	3	96	72	0
STR	70	240	5
SCR	70	240	5	96	72	0
HLD	71	144	1	96
HLD	71	144	7	96
TAP	71	288	2
TAP	71	288	6
TAP	72	48	1
TAP	72	48	4
TAP	72	96	1
TAP	72	96	4
TAP	72	192	3
TAP	72	192	6
TAP	72	240	3
STR	72	240	6
SI_	72	240	6	96	48	2
TAP	73	48	0
TAP	73	96	0
TAP	73	144	1
TAP	73	144	3
TAP	73	240	2
TAP	73	240	4
TAP	73	288	2
TAP	73	288	4
BRK	74	0	4
BRK	74	0	6
BRK	74	96	1
BRK	74	96	3
TAP	74	192	2
TAP	74	192	4
STR	74	240	2
SI_	74	240	2	96	72	6
STR	74	240	4
SI_	74	240	4	96	72	0
HLD	75	144	1	96
HLD	75	144	5	96
TAP	75	288	0
TAP	75	288	4
TAP	76	48	3
TAP	76	48	6
TAP	76	96	3
TAP	76	96	6
TAP	76	192	1
TAP	76	192	4
TAP	76	240	1
TAP	76	240	4
XHO	76	336	0	96
XHO	76	336	6	96
HLD	77	96	1	48
HLD	77	96	7	48
TAP	77	192	0
TAP	77	192	6
TAP	77	288	1
TAP	77	288	5
BRK	78	0	2
BRK	78	0	7
BRK	78	96	0
BRK	78	96	5
TAP	78	192	1
TAP	78	192	7
TAP	78	240	1
TAP	78	240	7
BST	78	336	3
SXR	78	336	3	96	168	4
BST	78	336	5
SXL	78	336	5	96	168	4
TAP	79	288	4
TAP	80	0	3
TAP	80	0	4
TAP	80	96	2
TAP	80	96	3
STR	80	192	3
SXL	80	192	3	96	192	3
SXR	80	192	3	96	192	3
TAP	80	240	3
TAP	81	192	3
TAP	81	288	2
TAP	81	288	3
BRK	82	0	0
BRK	82	0	5
BRK	82	96	2
BRK	82	96	7
TAP	82	192	0
TAP	82	192	6
TAP	82	240	0
TAP	82	240	6
BST	82	336	2
SLL	82	336	2	96	168	3
BST	82	336	4
SLR	82	336	4	96	168	3
TAP	83	288	2
TAP	83	288	4
HLD	84	0	5	96
HLD	84	96	7	96
HLD	84	192	0	96
TAP	84	288	2
TAP	84	336	2
TTP	85	48	4	E	0	M1
TTP	85	96	3	E	0	M1
TTP	85	96	5	E	0	M1
TTP	85	144	2	E	0	M1
TTP	85	144	6	E	0	M1
TTP	85	192	1	E	0	M1
TTP	85	192	7	E	0	M1
BRK	85	288	0
BRK	85	288	7
TAP	86	0	3
TAP	86	0	4
TAP	86	96	5
TAP	86	192	0
TAP	86	192	6
TAP	86	240	0
TAP	86	240	6
TAP	86	336	1
TAP	86	336	7
TAP	87	48	3
TAP	87	48	5
HLD	87	144	2	96
HLD	87	144	6	96
TAP	87	288	1
TAP	87	288	5
TAP	88	0	2
TAP	88	96	1
TAP	88	96	3
TAP	88	192	0
TAP	88	288	6
TAP	88	288	7
HLD	88	336	6	96
HLD	88	336	7	96
TAP	89	144	3
TAP	89	144	5
TAP	89	240	2
TAP	89	240	6
TAP	89	288	2
TAP	89	288	6
TAP	90	0	3
TAP	90	0	4
TAP	90	96	2
TAP	90	192	1
TAP	90	192	7
TAP	90	240	1
TAP	90	240	7
TAP	90	336	0
TAP	90	336	6
TAP	91	48	2
TAP	91	48	4
HLD	91	144	1	96
HLD	91	144	5	96
TAP	91	288	2
TAP	91	288	6
TAP	92	0	5
TAP	92	96	4
TAP	92	96	6
TAP	92	192	2
TAP	92	288	1
TAP	92	288	3
TAP	92	336	1
TAP	92	336	3
TAP	93	48	0
TAP	93	48	7
TAP	93	144	4
TAP	93	144	6
TAP	93	240	5
TAP	93	288	4
TAP	93	336	3
STR	94	0	2
SCL	94	0	2	96	672	3

T_REC_TAP	306
T_REC_BRK	32
T_REC_XTP	36
T_REC_HLD	75
T_REC_XHO	6
T_REC_STR	21
T_REC_BST	8
T_REC_XST	0
T_REC_TTP	53
T_REC_THO	0
T_REC_SLD	31
T_REC_ALL	568
T_NUM_TAP	416
T_NUM_BRK	40
T_NUM_HLD	81
T_NUM_SLD	31
T_NUM_ALL	568
T_JUDGE_TAP	456
T_JUDGE_HLD	212
T_JUDGE_SLD	31
T_JUDGE_ALL	699
TTM_EACHPAIRS	183
TTM_SCR_TAP	208000
TTM_SCR_BRK	104000
TTM_SCR_HLD	81000
TTM_SCR_SLD	46500
TTM_SCR_ALL	439500
TTM_SCR_S	422450
TTM_SCR_SS	435500
TTM_RAT_ACV	10091

