VERSION	0.00.00	1.03.00
FES_MODE	0
BPM_DEF	171.000	171.000	171.000	171.000
MET_DEF	4	4
RESOLUTION	384
CLK_DEF	384
COMPATIBLE_CODE	MA2

BPM	0	0	171.000
MET	0	0	4	4

TTP	2	0	4	E	0	L1
TTP	2	192	3	E	0	L1
TTP	3	0	2	E	0	L1
TTP	3	192	1	E	0	L1
TTP	4	0	0	E	0	L1
TTP	4	192	7	E	0	L1
XTP	5	0	0
XTP	5	96	0
TAP	5	192	0
TAP	5	192	7
TAP	6	0	6
TAP	6	96	6
TAP	6	192	6
TAP	6	192	7
TAP	7	0	1
TAP	7	96	1
TAP	7	192	0
TAP	7	192	1
TAP	8	0	6
TAP	8	96	6
TAP	8	192	7
TAP	8	288	7
TAP	9	0	0
TAP	9	96	0
TAP	9	192	1
TAP	9	192	7
TAP	10	0	2
TAP	10	96	2
TAP	10	192	2
TAP	10	192	3
TAP	11	0	5
TAP	11	96	5
TAP	11	192	4
TAP	11	192	5
TAP	12	0	2
TAP	12	96	2
TAP	12	192	3
TAP	12	288	3
TAP	13	0	4
TAP	13	96	4
BRK	13	192	3
BRK	13	192	5
TAP	14	0	2
TAP	14	96	2
TAP	14	192	3
TAP	15	0	5
TAP	15	96	5
TAP	15	192	4
HLD	16	0	2	192
HLD	16	192	3	192
HLD	17	0	4	192
TAP	17	192	5
TAP	18	0	6
TAP	18	96	6
TAP	18	192	7
TAP	19	0	1
TAP	19	96	1
TAP	19	192	0
HLD	20	0	6	192
HLD	20	192	7	192
HLD	21	0	0	192
TAP	21	192	1
STR	22	0	2
SI_	22	0	2	96	144	7
HLD	23	0	6	192
TAP	23	192	7
STR	24	0	5
SI_	24	0	5	96	144	0
XTP	25	0	1
XTP	25	96	0
XTP	25	96	7
XTP	25	192	1
XTP	25	192	6
HLD	26	0	5	192
TAP	26	192	4
HLD	27	0	2	192
TAP	27	192	3
TTP	28	0	0	C	0	L1
TTP	28	0	1	B	0	L1
TTP	28	0	6	B	0	L1
XTP	29	0	0
XTP	29	0	7
XTP	29	96	0
XTP	29	96	7
XTP	29	192	0
XTP	29	192	7
TAP	30	0	6
TAP	30	96	6
TAP	30	192	6
TAP	30	192	7
TAP	30	288	6
TAP	30	288	7
TAP	31	0	5
TAP	31	96	4
TAP	31	192	3
TAP	31	288	2
TAP	32	0	1
TAP	32	96	1
TAP	32	192	0
TAP	32	192	1
TAP	32	288	0
TAP	32	288	1
TAP	33	0	2
TAP	33	96	3
TAP	33	192	2
TAP	33	192	4
TAP	34	0	5
TAP	34	96	5
TAP	34	192	4
TAP	34	192	5
TAP	34	288	4
TAP	34	288	5
TAP	35	0	6
TAP	35	96	7
TAP	35	192	0
TAP	35	288	1
TAP	36	0	2
TAP	36	96	2
TAP	36	192	2
TAP	36	192	3
TAP	36	288	2
TAP	36	288	3
XTP	37	0	1
XTP	37	96	0
XTP	37	96	7
XTP	37	192	1
XTP	37	192	6
TAP	38	0	4
TAP	38	0	5
TAP	38	96	4
TAP	38	96	5
TAP	38	192	3
TAP	38	192	6
TAP	39	0	5
TAP	39	96	5
TAP	39	192	4
TAP	39	288	4
TAP	40	0	3
TAP	40	96	3
TAP	40	192	2
TAP	40	192	4
TAP	41	0	3
TAP	41	96	4
TAP	41	192	2
TAP	41	192	5
TAP	42	0	2
TAP	42	0	3
TAP	42	96	2
TAP	42	96	3
TAP	42	192	1
TAP	42	192	4
TAP	43	0	2
TAP	43	96	2
TAP	43	192	3
TAP	43	288	3
TAP	44	0	4
TAP	44	96	4
TAP	44	192	5
TAP	44	288	5
TAP	45	0	6
TAP	45	96	0
TAP	45	96	7
TAP	45	192	1
TAP	45	192	6
BRK	45	288	1
BRK	45	288	6
TAP	46	0	7
TAP	46	96	7
TAP	46	192	0
TAP	46	192	7
STR	47	0	6
SI_	47	0	6	96	144	3
TAP	48	0	2
TAP	48	96	2
TAP	48	192	2
TAP	48	192	3
STR	49	0	1
SI_	49	0	1	96	144	5
TAP	50	0	6
TAP	50	96	6
TAP	50	192	6
TAP	50	192	7
STR	51	0	5
SCR	51	0	5	96	144	0
TAP	52	0	1
TAP	52	96	1
TAP	52	192	0
TAP	52	192	1
XTP	53	0	0
XTP	53	0	7
XTP	53	96	0
XTP	53	96	7
XTP	53	192	0
XTP	53	192	7
TTP	54	0	0	E	0	L1
TTP	55	0	7	E	0	L1
TTP	56	0	6	E	0	L1
TTP	57	0	5	E	0	L1
TTP	58	0	4	E	0	L1
TTP	59	0	3	E	0	L1
TTP	60	0	2	E	0	L1
XTP	61	0	0
XTP	61	96	0
XTP	61	192	0
XTP	61	192	7
STR	62	0	6
SCL	62	0	6	96	144	3
HLD	63	0	2	192
TAP	63	192	3
STR	64	0	1
SCR	64	0	1	96	144	4
XTP	65	0	5
XTP	65	96	3
XTP	65	96	4
XTP	65	192	2
XTP	65	192	5
HLD	66	0	2	192
TAP	66	192	3
HLD	67	0	5	192
TAP	67	192	4
TTP	68	0	0	C	0	L1
TTP	68	0	1	B	0	L1
TTP	68	0	6	B	0	L1
XTP	69	0	0
XTP	69	0	7
XTP	69	96	0
XTP	69	96	7
XTP	69	192	0
XTP	69	192	7
TAP	70	0	0
TAP	70	0	1
TAP	70	96	0
TAP	70	96	1
TAP	70	192	1
TAP	70	288	1
TAP	71	0	2
TAP	71	96	3
TAP	71	192	4
TAP	71	288	5
TAP	72	0	6
TAP	72	0	7
TAP	72	96	6
TAP	72	96	7
TAP	72	192	6
TAP	72	288	6
TAP	73	0	5
TAP	73	96	4
TAP	73	192	3
TAP	73	192	5
TAP	74	0	2
TAP	74	0	3
TAP	74	96	2
TAP	74	96	3
TAP	74	192	2
TAP	74	288	2
TAP	75	0	1
TAP	75	96	0
TAP	75	192	7
TAP	75	288	6
TAP	76	0	4
TAP	76	0	5
TAP	76	96	4
TAP	76	96	5
TAP	76	192	5
TAP	76	288	5
XTP	77	0	6
XTP	77	96	0
XTP	77	96	7
XTP	77	192	1
XTP	77	192	6
TAP	78	0	2
TAP	78	0	3
TAP	78	96	2
TAP	78	96	3
TAP	78	192	1
TAP	78	192	4
TAP	79	0	2
TAP	79	96	2
TAP	79	192	3
TAP	79	288	3
TAP	80	0	4
TAP	80	96	4
TAP	80	192	3
TAP	80	192	5
TAP	81	0	4
TAP	81	96	3
TAP	81	192	2
TAP	81	192	5
TAP	82	0	4
TAP	82	0	5
TAP	82	96	4
TAP	82	96	5
TAP	82	192	3
TAP	82	192	6
TAP	83	0	5
TAP	83	96	5
TAP	83	192	4
TAP	83	288	4
TAP	84	0	3
TAP	84	96	3
TAP	84	192	2
TAP	84	288	2
TAP	85	0	1
TAP	85	96	0
TAP	85	96	7
TAP	85	192	0
TAP	85	192	7
BRK	85	288	1
BRK	85	288	6
TAP	86	0	7
TAP	86	96	7
TAP	86	192	0
TAP	86	192	7
TAP	87	0	1
TAP	87	96	1
TAP	87	192	0
TAP	87	192	1
STR	88	0	1
SI_	88	0	1	96	144	5
STR	89	0	6
SI_	89	0	6	96	144	2
TAP	90	0	1
TAP	90	96	1
TAP	90	192	0
TAP	90	192	1
TAP	91	0	6
TAP	91	96	6
TAP	91	192	6
TAP	91	192	7
TAP	92	0	4
TAP	92	0	5
TAP	92	192	2
TAP	92	192	3
XTP	92	336	3
XTP	92	336	4
XTP	93	48	3
XTP	93	48	4
XTP	93	144	3
XTP	93	144	4
XTP	93	288	2
XTP	93	288	5
XTP	94	0	2
XST	94	0	5
SCR	94	0	5	96	672	4

T_REC_TAP	234
T_REC_BRK	6
T_REC_XTP	53
T_REC_HLD	12
T_REC_XHO	0
T_REC_STR	9
T_REC_BST	0
T_REC_XST	1
T_REC_TTP	19
T_REC_THO	0
T_REC_SLD	10
T_REC_ALL	344
T_NUM_TAP	316
T_NUM_BRK	6
T_NUM_HLD	12
T_NUM_SLD	10
T_NUM_ALL	344
T_JUDGE_TAP	322
T_JUDGE_HLD	48
T_JUDGE_SLD	10
T_JUDGE_ALL	380
TTM_EACHPAIRS	80
TTM_SCR_TAP	158000
TTM_SCR_BRK	15600
TTM_SCR_HLD	12000
TTM_SCR_SLD	15000
TTM_SCR_ALL	200600
TTM_SCR_S	194000
TTM_SCR_SS	200000
TTM_RAT_ACV	10030

