VERSION	0.00.00	1.03.00
FES_MODE	0
BPM_DEF	171.000	171.000	171.000	171.000
MET_DEF	4	4
RESOLUTION	384
CLK_DEF	384
COMPATIBLE_CODE	MA2

BPM	0	0	171.000
MET	0	0	4	4

TAP	6	0	3
TAP	8	0	3
TAP	10	0	4
TAP	12	0	4
TAP	14	0	3
TAP	15	0	2
TAP	16	0	1
TAP	17	0	0
TAP	18	0	7
TAP	19	0	6
TAP	20	0	5
TAP	21	0	3
TAP	21	0	4
TTP	22	0	3	B	0	L1
TTP	23	0	4	B	0	L1
TTP	24	0	2	B	0	L1
TTP	25	0	5	B	0	L1
TTP	26	0	1	B	0	L1
TTP	27	0	6	B	0	L1
THO	28	0	0	288	C	0	L1
BRK	30	0	0
TAP	30	192	0
TAP	31	0	0
TAP	31	0	1
TAP	32	0	2
TAP	32	192	2
TAP	33	0	2
TAP	33	0	3
TAP	34	0	4
TAP	34	192	4
TAP	35	0	4
TAP	35	0	5
TAP	36	0	6
TAP	36	192	6
XTP	37	0	6
XTP	37	0	7
TAP	38	0	0
TAP	38	96	0
TAP	38	192	0
XTP	39	0	7
TAP	39	96	7
TAP	39	192	7
TAP	40	0	0
TAP	40	192	0
TAP	41	0	1
TAP	41	192	2
TAP	41	192	3
TAP	42	0	4
TAP	42	96	4
TAP	42	192	4
TAP	43	0	3
TAP	43	96	3
TAP	43	192	3
TAP	44	0	3
TAP	44	0	4
TAP	44	192	3
TAP	44	192	4
XTP	45	0	2
XTP	45	0	5
STR	46	0	0
SI_	46	0	0	96	288	3
STR	48	0	7
SI_	48	0	7	96	288	4
STR	50	0	3
SI_	50	0	3	96	288	0
TAP	52	0	7
TAP	53	0	0
TAP	53	0	7
HLD	54	0	0	384
HLD	54	0	1	384
HLD	56	0	2	384
HLD	56	0	3	384
HLD	58	0	4	384
HLD	58	0	5	384
HLD	60	0	6	384
HLD	60	0	7	384
TTP	62	0	7	B	0	L1
TTP	63	0	0	B	0	L1
TTP	64	0	6	B	0	L1
TTP	65	0	1	B	0	L1
TTP	66	0	5	B	0	L1
TTP	67	0	2	B	0	L1
THO	68	0	0	288	C	0	L1
BRK	70	0	7
TAP	70	192	7
TAP	71	0	6
TAP	71	192	6
TAP	72	0	5
TAP	72	192	5
XTP	73	0	3
XTP	73	0	4
TAP	74	0	3
TAP	74	192	3
TAP	75	0	2
TAP	75	192	2
TAP	76	0	1
TAP	76	192	1
TAP	77	0	0
TAP	77	0	7
TAP	77	192	0
TAP	77	192	7
TAP	78	0	0
TAP	78	96	0
TAP	78	192	0
TAP	79	0	7
TAP	79	96	7
TAP	79	192	0
TAP	79	192	7
TAP	80	0	6
TAP	80	192	6
TAP	81	0	5
TAP	81	192	4
TAP	81	192	5
TAP	82	0	3
TAP	82	96	3
TAP	82	192	3
TAP	83	0	4
TAP	83	96	4
TAP	83	192	3
TAP	83	192	4
TAP	84	0	2
TAP	84	0	5
TAP	84	192	2
TAP	84	192	5
XTP	85	0	1
XTP	85	0	6
HLD	86	0	0	192
HLD	86	0	1	192
TAP	87	0	0
TAP	87	0	1
HLD	88	0	2	192
HLD	88	0	3	192
TAP	89	0	2
TAP	89	0	3
HLD	90	0	4	192
HLD	90	0	5	192
TAP	91	0	4
TAP	91	0	5
TAP	92	0	6
STR	92	192	6
SI_	92	192	6	96	480	2

T_REC_TAP	94
T_REC_BRK	2
T_REC_XTP	9
T_REC_HLD	14
T_REC_XHO	0
T_REC_STR	4
T_REC_BST	0
T_REC_XST	0
T_REC_TTP	12
T_REC_THO	2
T_REC_SLD	4
T_REC_ALL	141
T_NUM_TAP	119
T_NUM_BRK	2
T_NUM_HLD	16
T_NUM_SLD	4
T_NUM_ALL	141
T_JUDGE_TAP	121
T_JUDGE_HLD	100
T_JUDGE_SLD	4
T_JUDGE_ALL	225
TTM_EACHPAIRS	29
TTM_SCR_TAP	59500
TTM_SCR_BRK	5200
TTM_SCR_HLD	16000
TTM_SCR_SLD	6000
TTM_SCR_ALL	86700
TTM_SCR_S	83950
TTM_SCR_SS	86500
TTM_RAT_ACV	10023

