VERSION	0.00.00	1.03.00
FES_MODE	0
BPM_DEF	164.000	164.000	164.000	164.000
MET_DEF	4	4
RESOLUTION	384
CLK_DEF	384
COMPATIBLE_CODE	MA2

BPM	0	0	164.000
MET	0	0	4	4

TAP	2	0	2
TAP	2	0	5
TTP	2	96	3	B	0	M1
TTP	2	96	4	B	0	M1
HLD	2	192	2	192
TTP	2	288	4	E	0	M1
HLD	3	0	5	192
TTP	3	96	4	E	0	M1
HLD	3	192	2	192
TTP	3	288	4	E	0	M1
TAP	4	0	4
TAP	4	48	4
TAP	4	96	3
TAP	4	144	3
TAP	4	192	4
TAP	4	240	4
TAP	4	288	3
TAP	4	336	3
TAP	5	0	5
TAP	5	48	5
TAP	5	96	2
TAP	5	144	2
TAP	5	192	5
BRK	5	240	1
BRK	5	288	1
STR	6	0	0
SI_	6	0	0	96	48	3
STR	6	0	7
SI_	6	0	7	96	48	4
TAP	6	192	2
STR	6	240	1
SI_	6	240	1	96	48	3
TAP	6	240	4
TAP	6	336	0
TAP	7	48	5
TAP	7	96	3
STR	7	96	6
SI_	7	96	6	96	48	4
TAP	7	192	7
TAP	7	288	2
XTP	8	0	1
XTP	8	0	7
XTP	8	48	2
XTP	8	48	6
XTP	8	192	0
XTP	8	192	6
XTP	8	240	1
XTP	8	240	5
TAP	8	336	3
TAP	8	336	4
TAP	9	48	2
TAP	9	48	6
TAP	9	144	1
TAP	9	144	5
STR	9	192	1
SI_	9	192	1	96	48	4
STR	9	192	5
SI_	9	192	5	96	48	0
TAP	10	0	4
TAP	10	48	5
TAP	10	96	6
TAP	10	144	7
TAP	10	192	0
TAP	10	240	1
TAP	10	288	2
TAP	10	336	3
TAP	10	336	7
TAP	11	0	6
TAP	11	48	5
TAP	11	96	4
TAP	11	144	3
TAP	11	192	2
TAP	11	240	1
TAP	11	288	0
TAP	11	336	7
TAP	12	0	3
HLD	12	0	6	48
TAP	12	48	4
HLD	12	96	6	48
TAP	12	144	5
HLD	12	192	6	48
TAP	12	240	7
TAP	12	288	6
HLD	12	336	0	240
TAP	13	48	7
TAP	13	96	6
TAP	13	144	5
STR	13	192	4
SI_	13	192	4	96	48	7
XTP	13	240	1
XTP	13	288	1
TAP	14	0	3
TAP	14	48	2
TAP	14	96	1
TAP	14	144	0
TAP	14	192	7
TAP	14	240	6
TAP	14	288	5
TAP	14	336	0
TAP	14	336	4
TAP	15	0	1
TAP	15	48	2
TAP	15	96	3
TAP	15	144	4
TAP	15	192	5
TAP	15	240	6
TAP	15	288	7
TAP	15	336	0
HLD	16	0	1	48
TAP	16	0	4
TAP	16	48	3
HLD	16	96	1	48
TAP	16	144	2
HLD	16	192	1	48
TAP	16	240	0
TAP	16	288	1
HLD	16	336	7	192
TAP	17	48	0
TAP	17	96	1
TAP	17	144	2
XTP	17	192	3
XTP	17	192	7
XTP	17	240	2
XTP	17	240	6
XTP	17	288	1
XTP	17	288	5
STR	18	0	0
SI_	18	0	0	96	48	3
TAP	18	0	4
TAP	18	96	4
STR	18	192	3
SI_	18	192	3	96	48	0
TAP	18	192	4
TAP	18	288	4
STR	19	0	1
SI_	19	0	1	96	48	6
TAP	19	0	4
TAP	19	96	4
TAP	19	192	4
STR	19	192	6
SI_	19	192	6	96	48	1
TAP	19	288	4
TAP	20	0	4
TAP	20	48	3
TAP	20	96	4
TAP	20	144	2
TAP	20	192	3
TAP	20	240	1
TAP	20	288	2
STR	20	336	0
SSL	20	336	0	96	144	4
TAP	20	336	2
TAP	21	48	5
TAP	21	96	5
TAP	21	144	5
TAP	21	192	5
TAP	21	288	2
TAP	21	288	6
TAP	22	0	3
STR	22	0	7
SI_	22	0	7	96	48	4
TAP	22	96	3
TAP	22	192	3
STR	22	192	4
SI_	22	192	4	96	48	7
TAP	22	288	3
TAP	23	0	3
STR	23	0	6
SI_	23	0	6	96	48	1
TAP	23	96	3
STR	23	192	1
SI_	23	192	1	96	48	6
TAP	23	192	3
TAP	23	288	3
TAP	24	0	3
TAP	24	48	4
TAP	24	96	3
TAP	24	144	5
TAP	24	192	4
TAP	24	240	6
TAP	24	288	5
TAP	24	336	5
STR	24	336	7
SSR	24	336	7	96	144	3
TAP	25	48	2
TAP	25	96	2
TAP	25	144	2
TAP	25	192	2
BRK	25	288	0
BRK	25	288	7
HLD	26	0	3	48
HLD	26	0	4	48
HLD	26	96	2	48
HLD	26	96	3	48
TAP	26	192	1
TAP	26	192	2
TAP	26	240	1
TAP	26	240	2
TAP	26	336	2
HLD	27	0	3	48
HLD	27	0	4	48
HLD	27	96	4	48
HLD	27	96	5	48
TAP	27	192	5
TAP	27	192	6
TAP	27	240	5
TAP	27	240	6
TAP	27	336	2
TAP	27	336	5
HLD	28	0	2	192
TAP	28	0	5
TAP	28	48	4
TAP	28	96	3
TAP	28	144	4
HLD	28	192	5	192
TAP	28	240	3
TAP	28	288	4
TAP	28	336	3
HLD	29	0	1	192
TAP	29	48	3
TAP	29	96	2
TAP	29	144	3
STR	29	192	5
SI_	29	192	5	96	48	7
XTP	29	240	0
XTP	29	288	0
HLD	30	0	3	48
HLD	30	0	5	48
HLD	30	96	2	48
HLD	30	96	4	48
TAP	30	192	1
TAP	30	192	3
TAP	30	240	1
TAP	30	240	3
TAP	30	336	3
HLD	31	0	2	48
HLD	31	0	4	48
HLD	31	96	3	48
HLD	31	96	5	48
TAP	31	192	4
TAP	31	192	6
TAP	31	240	4
TAP	31	240	6
TAP	31	336	2
TAP	31	336	5
TAP	32	0	2
HLD	32	0	5	192
TAP	32	48	4
TAP	32	96	6
TAP	32	144	4
HLD	32	192	2	192
TAP	32	240	3
TAP	32	288	1
TAP	32	336	3
HLD	33	0	6	192
TAP	33	48	5
TAP	33	96	7
TAP	33	144	4
TAP	33	192	0
STR	33	288	6
SCL	33	288	6	96	192	3
TAP	33	288	7
TAP	34	0	0
TAP	34	72	1
TAP	34	144	2
STR	34	192	2
SI_	34	192	2	96	48	7
STR	34	288	3
SCR	34	288	3	96	192	6
TAP	35	0	0
TAP	35	72	1
TAP	35	144	2
STR	35	192	2
SI_	35	192	2	96	48	7
TAP	35	288	6
STR	36	0	1
SLR	36	0	1	96	96	5
STR	36	96	5
SLR	36	96	5	96	96	1
TAP	36	192	1
TAP	36	288	5
TAP	37	0	2
TAP	37	0	4
TAP	37	48	3
TAP	37	96	3
TAP	37	96	5
TAP	37	144	4
TAP	37	192	2
TAP	37	192	4
TAP	37	288	3
TAP	37	288	5
TAP	38	0	0
TAP	38	0	7
TAP	38	96	3
TAP	38	96	4
TAP	38	192	2
TAP	38	192	7
TAP	38	240	2
TAP	38	240	7
TAP	38	336	0
TAP	38	336	5
TAP	39	48	1
TAP	39	48	7
TAP	39	96	2
TAP	39	96	6
TAP	39	144	1
TAP	39	144	7
TAP	39	192	2
TAP	39	192	6
XTP	39	288	3
XTP	39	288	5
STR	40	0	4
SI_	40	0	4	96	48	1
SI_	40	0	4	96	48	7
BRK	40	96	4
TAP	40	192	0
HLD	40	192	2	72
HLD	40	264	4	72
STR	40	336	6
SI_	40	336	6	96	48	1
SI_	40	336	6	96	48	3
TAP	41	48	6
TAP	41	144	2
TAP	41	144	4
TAP	41	192	2
TAP	41	192	4
TAP	41	264	6
TAP	41	336	1
TAP	41	336	7
STR	42	0	0
SI_	42	0	0	96	48	4
TAP	42	48	0
STR	42	96	6
SI_	42	96	6	96	48	2
TAP	42	144	6
STR	42	192	1
SI_	42	192	1	96	48	5
TAP	42	240	1
STR	42	288	7
SI_	42	288	7	96	48	3
TAP	42	336	7
STR	43	0	2
SI_	43	0	2	96	48	6
TAP	43	48	2
TAP	43	96	5
TAP	43	144	5
TAP	43	192	0
XTP	43	240	1
XTP	43	240	7
XTP	43	288	1
XTP	43	288	7
STR	44	0	0
SI_	44	0	0	96	48	4
STR	44	0	6
SI_	44	0	6	96	48	1
BRK	44	96	0
BRK	44	96	6
TAP	44	192	3
TAP	44	240	2
HLD	44	240	6	96
STR	44	336	7
SCR	44	336	7	96	144	4
TAP	45	48	5
TAP	45	96	6
TAP	45	144	7
TAP	45	192	0
TAP	45	288	3
TAP	45	336	2
TAP	46	0	1
STR	46	0	7
SI_	46	0	7	96	48	3
TAP	46	96	6
BRK	46	96	7
TAP	46	192	2
TAP	46	192	3
TAP	46	240	1
TAP	46	240	4
TAP	46	288	0
TAP	46	288	5
TAP	46	336	6
TAP	46	336	7
TAP	47	48	3
TAP	47	48	4
TAP	47	144	1
TAP	47	144	5
STR	47	192	1
SI_	47	192	1	96	48	3
STR	47	192	5
SI_	47	192	5	96	48	3
TAP	48	0	2
TAP	48	24	4
TAP	48	48	2
TAP	48	72	4
TAP	48	120	0
TAP	48	144	7
TAP	48	192	5
TAP	48	216	3
TAP	48	240	5
TAP	48	264	3
TAP	48	312	7
TAP	48	336	0
STR	49	0	2
SI_	49	0	2	96	48	6
STR	49	48	4
SI_	49	48	4	96	48	0
TAP	49	96	2
TAP	49	144	4
BRK	49	192	1
STR	49	288	7
SXR	49	288	7	96	144	7
STR	49	336	0
SXL	49	336	0	96	144	0
STR	50	240	7
SI_	50	240	7	96	48	3
STR	50	288	0
SI_	50	288	0	96	48	2
STR	50	336	7
SI_	50	336	7	96	48	5
STR	51	0	0
SI_	51	0	0	96	48	4
STR	51	48	7
SI_	51	48	7	96	48	3
TAP	51	96	0
TAP	51	144	7
HLD	51	192	0	96
TAP	51	288	2
STR	52	0	4
SI_	52	0	4	96	48	1
SI_	52	0	4	96	48	7
BRK	52	96	4
TAP	52	192	2
TAP	52	192	6
HLD	52	240	2	96
TAP	52	240	6
STR	52	336	0
SCL	52	336	0	96	144	3
TAP	53	48	2
TAP	53	96	1
TAP	53	144	0
TAP	53	192	7
TAP	53	288	4
TAP	53	336	5
STR	54	0	0
SI_	54	0	0	96	48	4
TAP	54	0	6
BRK	54	96	0
TAP	54	96	1
TAP	54	192	4
TAP	54	192	5
TAP	54	240	3
TAP	54	240	6
TAP	54	288	2
TAP	54	288	7
STR	54	336	0
SI_	54	336	0	96	48	4
STR	54	336	1
SI_	54	336	1	96	48	4
TAP	55	144	2
TAP	55	144	5
TAP	55	192	2
TAP	55	192	5
TTP	55	288	2	B	0	M1
TTP	55	288	3	B	0	M1
TTP	55	288	4	B	0	M1
TTP	55	288	4	E	0	M1
TTP	55	288	5	B	0	M1
THO	56	0	0	1344	C	0	M1
STR	56	0	6
SCL	56	0	6	96	480	1
STR	58	0	1
SCR	58	0	1	96	480	6
TTP	60	0	0	C	1	M1
XHO	60	0	0	96
TTP	60	192	0	C	1	M1
XHO	60	192	7	96
TTP	61	0	0	C	1	M1
XHO	61	0	1	96
TTP	61	192	0	C	1	M1
XHO	61	192	6	96
TAP	62	0	1
TAP	62	24	0
TAP	62	48	1
TAP	62	72	0
TAP	62	96	2
TAP	62	120	7
TAP	62	144	2
TAP	62	168	7
TAP	62	192	3
TAP	62	216	6
TAP	62	240	3
TAP	62	264	6
TAP	62	288	4
TAP	62	312	5
HLD	62	336	4	96
TAP	63	48	3
TAP	63	144	0
TAP	63	144	7
TAP	63	192	0
TAP	63	192	7
XTP	63	288	2
XTP	63	288	5
STR	64	0	3
SI_	64	0	3	96	48	0
SI_	64	0	3	96	48	6
TAP	64	0	4
BRK	64	96	3
HLD	64	192	5	72
TAP	64	192	7
HLD	64	264	3	72
STR	64	336	1
SI_	64	336	1	96	48	4
SI_	64	336	1	96	48	6
TAP	65	48	1
TAP	65	144	3
TAP	65	144	5
TAP	65	192	3
TAP	65	192	5
TAP	65	264	1
TAP	65	336	0
TAP	65	336	6
STR	66	0	5
SI_	66	0	5	96	48	1
STR	66	48	7
SI_	66	48	7	96	48	3
TAP	66	96	5
TAP	66	144	7
HLD	66	192	6	72
TAP	66	264	4
TAP	66	336	3
STR	66	336	4
SSL	66	336	4	96	144	0
TAP	67	48	1
TAP	67	96	1
TAP	67	144	1
TAP	67	192	1
TAP	67	240	2
TAP	67	240	7
TAP	67	288	1
TAP	67	288	6
TAP	67	336	0
TAP	67	336	5
STR	68	0	4
SI_	68	0	4	96	48	7
STR	68	0	7
SI_	68	0	7	96	48	2
BRK	68	96	4
BRK	68	96	7
TAP	68	192	1
TAP	68	192	6
TAP	68	240	1
HLD	68	240	6	96
STR	68	336	3
SCL	68	336	3	96	144	6
TAP	69	48	5
TAP	69	96	4
TAP	69	144	3
TAP	69	192	2
TAP	69	288	4
TAP	69	336	5
STR	70	0	0
SI_	70	0	0	96	48	4
TAP	70	0	6
BRK	70	96	0
TAP	70	96	1
TAP	70	192	4
TAP	70	192	5
TAP	70	240	3
TAP	70	240	6
TAP	70	288	2
TAP	70	288	7
TAP	70	336	0
TAP	70	336	1
TAP	71	48	3
TAP	71	48	4
TAP	71	144	1
TAP	71	144	5
STR	71	192	1
SI_	71	192	1	96	48	3
STR	71	192	5
SI_	71	192	5	96	48	3
TAP	72	0	2
TAP	72	24	3
TAP	72	48	2
TAP	72	72	3
TAP	72	120	0
TAP	72	144	7
TAP	72	192	5
TAP	72	216	4
TAP	72	240	5
TAP	72	264	4
TAP	72	312	7
TAP	72	336	0
STR	73	0	2
SI_	73	0	2	96	48	6
STR	73	48	5
SI_	73	48	5	96	48	1
TAP	73	96	2
TAP	73	144	5
BRK	73	192	0
STR	73	288	6
SI_	73	288	6	96	96	1
STR	74	0	1
SI_	74	0	1	96	96	4
STR	74	96	4
SI_	74	96	4	96	96	7
STR	74	192	7
SI_	74	192	7	96	96	2
TAP	74	288	2
TTP	75	0	3	B	0	M1
TTP	75	0	3	E	0	M1
TTP	75	48	6	B	0	M1
TTP	75	48	7	E	0	M1
TTP	75	96	1	B	0	M1
TTP	75	96	1	E	0	M1
TTP	75	144	4	B	0	M1
TTP	75	144	5	E	0	M1
HLD	75	192	0	96
TAP	75	288	2
STR	76	0	4
SI_	76	0	4	96	48	1
SI_	76	0	4	96	48	7
BRK	76	96	4
TAP	76	192	0
TAP	76	192	6
STR	76	240	0
SI_	76	240	0	96	48	3
TAP	76	240	6
TAP	76	336	4
TAP	77	48	2
TAP	77	48	3
TAP	77	96	0
TAP	77	96	1
TAP	77	144	6
TAP	77	144	7
TAP	77	192	4
TAP	77	192	5
TAP	77	288	2
TAP	77	288	4
TAP	77	336	5
STR	78	0	0
SI_	78	0	0	96	48	4
TAP	78	0	6
BRK	78	96	0
TAP	78	96	1
TAP	78	192	4
TAP	78	192	5
TAP	78	240	6
TAP	78	240	7
TAP	78	288	0
TAP	78	288	1
STR	78	336	2
SI_	78	336	2	96	48	7
STR	78	336	3
SI_	78	336	3	96	48	7
TAP	79	144	6
TAP	79	192	5
TAP	79	240	4
TAP	79	288	3
TAP	79	336	2
XTP	80	0	1
XTP	80	0	7
XTP	80	48	3
XTP	80	48	5
XTP	80	192	0
XTP	80	192	6
XTP	80	240	2
XTP	80	240	4
TAP	80	336	0
TAP	80	336	5
TAP	81	48	2
TAP	81	48	7
TAP	81	144	0
TAP	81	144	4
HLD	81	192	0	96
STR	81	192	4
SI_	81	192	4	96	48	0
BRK	81	288	4
STR	82	0	1
SCR	82	0	1	96	96	5
TAP	82	0	7
BST	82	96	5
SCR	82	96	5	96	96	1
TAP	82	192	1
TAP	82	240	1
STR	82	336	0
SXR	82	336	0	96	192	5
TAP	82	336	2
TAP	83	48	4
TAP	83	96	3
TAP	83	144	2
HLD	83	192	1	144
TAP	83	288	6
TAP	83	336	7
STR	84	0	0
SCL	84	0	0	96	96	4
TAP	84	0	2
BST	84	96	4
SCL	84	96	4	96	96	0
TAP	84	192	0
TAP	84	240	0
STR	84	336	1
SXL	84	336	1	96	192	4
TAP	84	336	7
TAP	85	48	4
TAP	85	96	5
TAP	85	144	6
TAP	85	192	7
XTP	85	240	0
XTP	85	288	0
XTP	85	288	3
TAP	86	0	0
STR	86	0	6
SCL	86	0	6	96	96	2
BST	86	96	2
SCL	86	96	2	96	96	6
TAP	86	192	6
TAP	86	240	6
TAP	86	336	5
STR	86	336	7
SXL	86	336	7	96	192	2
TAP	87	48	3
TAP	87	96	4
TAP	87	144	5
HLD	87	192	6	144
TAP	87	288	1
TAP	87	336	0
STR	88	0	5
SI_	88	0	5	96	48	2
STR	88	0	7
SI_	88	0	7	96	48	2
TAP	88	96	5
TAP	88	96	7
TAP	88	192	1
TAP	88	192	4
TAP	88	240	2
TAP	88	240	5
TAP	88	288	3
TAP	88	288	6
TAP	88	336	4
HLD	88	336	7	192
TAP	89	48	6
TAP	89	96	4
TAP	89	144	3
STR	89	192	1
SI_	89	192	1	96	48	4
STR	89	192	7
SI_	89	192	7	96	48	4
BRK	89	288	1
BRK	89	288	7

T_REC_TAP	432
T_REC_BRK	21
T_REC_XTP	37
T_REC_HLD	48
T_REC_XHO	4
T_REC_STR	86
T_REC_BST	3
T_REC_XST	0
T_REC_TTP	22
T_REC_THO	1
T_REC_SLD	95
T_REC_ALL	749
T_NUM_TAP	577
T_NUM_BRK	24
T_NUM_HLD	53
T_NUM_SLD	95
T_NUM_ALL	749
T_JUDGE_TAP	601
T_JUDGE_HLD	137
T_JUDGE_SLD	95
T_JUDGE_ALL	833
TTM_EACHPAIRS	155
TTM_SCR_TAP	288500
TTM_SCR_BRK	62400
TTM_SCR_HLD	53000
TTM_SCR_SLD	142500
TTM_SCR_ALL	546400
TTM_SCR_S	527700
TTM_SCR_SS	544000
TTM_RAT_ACV	10044

