VERSION	0.00.00	1.03.00
FES_MODE	0
BPM_DEF	164.000	164.000	164.000	164.000
MET_DEF	4	4
RESOLUTION	384
CLK_DEF	384
COMPATIBLE_CODE	MA2

BPM	0	0	164.000
MET	0	0	4	4

TAP	1	144	3
TAP	1	144	4
TAP	1	192	3
TAP	1	192	4
TAP	1	288	2
TAP	1	288	5
TAP	2	0	2
TAP	2	0	5
XST	2	96	0
SCR	2	96	0	96	48	3
TAP	2	192	4
TAP	2	288	6
TAP	2	336	6
TAP	3	48	4
TAP	3	48	5
TAP	3	144	2
TAP	3	144	4
HLD	3	192	2	96
HLD	3	192	4	96
HLD	3	336	3	96
HLD	3	336	5	96
HLD	4	96	2	48
HLD	4	96	3	48
STR	4	192	1
SI_	4	192	1	96	48	3
TAP	4	192	4
TAP	4	288	5
HLD	4	336	5	96
TAP	5	48	4
TAP	5	96	4
TAP	5	192	2
TAP	5	192	6
TAP	5	288	2
TAP	5	288	6
STR	6	0	1
SI_	6	0	1	96	48	5
TAP	6	96	7
TAP	6	192	6
HLD	6	240	6	96
TAP	6	336	7
TAP	7	48	0
TAP	7	48	7
STR	7	96	0
SI_	7	96	0	96	48	3
STR	7	96	7
SI_	7	96	7	96	48	4
TAP	7	288	2
TAP	7	288	5
TAP	8	0	1
TAP	8	0	4
HLD	8	48	1	96
HLD	8	48	4	96
TAP	8	192	3
TAP	8	192	6
HLD	8	240	3	96
HLD	8	240	6	96
TAP	9	48	2
TAP	9	48	4
TAP	9	144	1
TAP	9	144	5
TAP	9	192	1
TAP	9	192	5
BRK	9	288	7
STR	10	0	5
SCL	10	0	5	96	48	2
TAP	10	96	1
TAP	10	192	0
TAP	10	240	0
TAP	10	288	0
TAP	10	288	7
STR	11	0	2
SCR	11	0	2	96	48	5
TAP	11	96	6
TAP	11	192	7
TAP	11	240	7
TAP	11	288	0
TAP	11	288	7
STR	12	0	6
SI_	12	0	6	96	48	3
STR	12	96	2
SI_	12	96	2	96	48	7
STR	12	192	5
SI_	12	192	5	96	48	2
TAP	12	288	1
HLD	12	336	1	96
TAP	13	48	4
TAP	13	96	2
TAP	13	96	5
XTP	13	192	7
XTP	13	240	0
XTP	13	288	1
XTP	13	288	5
STR	14	0	2
SCR	14	0	2	96	48	5
TAP	14	96	6
TAP	14	192	7
TAP	14	240	7
TAP	14	288	0
TAP	14	288	7
STR	15	0	5
SCL	15	0	5	96	48	2
TAP	15	96	1
TAP	15	192	0
TAP	15	240	0
TAP	15	288	0
TAP	15	288	7
STR	16	0	1
SI_	16	0	1	96	48	4
STR	16	96	5
SI_	16	96	5	96	48	0
STR	16	192	2
SI_	16	192	2	96	48	5
TAP	16	288	6
HLD	16	336	6	96
TAP	17	48	3
STR	17	96	2
SI_	17	96	2	96	48	7
STR	17	96	5
SI_	17	96	5	96	48	0
STR	18	0	0
SI_	18	0	0	96	48	3
STR	18	0	7
SI_	18	0	7	96	48	4
XTP	18	192	2
XTP	18	192	5
TAP	18	264	1
TAP	18	264	6
TAP	18	336	0
HLD	18	336	7	240
TAP	19	48	5
TAP	19	96	5
HLD	19	192	0	192
TAP	19	288	2
HLD	20	0	7	96
HLD	20	96	5	96
HLD	20	192	4	96
HLD	20	288	3	96
HLD	21	0	2	96
STR	21	96	0
SUL	21	96	0	96	96	4
SUR	21	96	0	96	96	4
STR	22	0	0
SI_	22	0	0	96	48	4
STR	22	0	7
SI_	22	0	7	96	48	3
XTP	22	192	2
XTP	22	192	5
TAP	22	264	1
TAP	22	264	6
HLD	22	336	0	240
TAP	22	336	7
TAP	23	48	2
TAP	23	96	2
HLD	23	192	7	192
TAP	23	288	5
HLD	24	0	0	96
HLD	24	96	2	96
HLD	24	192	3	96
HLD	24	288	4	96
TAP	25	0	5
TAP	25	96	6
TAP	25	96	7
BRK	25	192	1
BRK	25	192	4
TAP	25	288	0
HLD	25	336	0	48
HLD	26	0	4	48
HLD	26	48	1	48
HLD	26	96	3	48
HLD	26	144	0	48
HLD	26	192	4	48
TAP	26	240	1
TAP	26	336	7
HLD	27	0	7	48
HLD	27	48	3	48
HLD	27	96	6	48
HLD	27	144	4	48
HLD	27	192	7	48
TAP	27	240	3
TAP	27	336	4
TAP	27	336	6
HLD	28	0	4	48
HLD	28	0	6	48
HLD	28	96	1	48
HLD	28	96	3	48
HLD	28	192	4	48
HLD	28	192	6	48
HLD	28	288	1	48
HLD	28	288	3	48
TAP	29	0	0
TAP	29	0	4
TAP	29	48	0
TAP	29	48	4
STR	29	96	0
SCR	29	96	0	96	48	2
STR	29	96	4
SCR	29	96	4	96	48	6
HLD	29	336	7	48
HLD	30	0	3	48
HLD	30	48	6	48
HLD	30	96	4	48
HLD	30	144	7	48
HLD	30	192	3	48
TAP	30	240	6
HLD	30	336	0	48
HLD	31	0	4	48
HLD	31	48	1	48
HLD	31	96	3	48
HLD	31	144	0	48
HLD	31	192	4	48
TAP	31	240	1
TAP	31	336	2
TAP	31	336	3
HLD	32	0	2	48
HLD	32	0	3	48
HLD	32	96	3	48
HLD	32	96	5	48
TAP	32	192	2
TAP	32	192	6
STR	32	288	1
SCR	32	288	1	96	96	4
STR	32	288	5
SCR	32	288	5	96	96	0
XTP	33	192	2
XTP	33	192	6
HLD	33	288	0	96
TAP	34	0	3
TAP	34	72	1
TAP	34	72	4
TAP	34	144	2
TAP	34	144	5
TAP	34	192	2
TAP	34	192	5
HLD	34	288	7	96
TAP	35	0	4
TAP	35	72	3
TAP	35	72	6
TAP	35	144	2
TAP	35	144	5
TAP	35	192	2
TAP	35	192	5
HLD	35	288	0	96
TAP	36	0	3
TAP	36	72	1
TAP	36	72	4
TAP	36	144	2
TAP	36	144	5
TAP	36	192	2
TAP	36	192	5
HLD	36	288	6	96
HLD	37	0	4	96
HLD	37	96	3	96
HLD	37	192	1	96
STR	37	288	7
SCL	37	288	7	96	288	0
TTP	38	0	0	C	1	M1
TTP	38	0	3	B	0	M1
TTP	38	0	4	B	0	M1
TAP	39	48	0
TAP	39	48	7
TAP	39	96	0
TAP	39	96	7
TAP	39	192	2
TAP	39	192	4
TAP	39	288	3
TAP	39	288	5
STR	40	0	1
SI_	40	0	1	96	48	4
STR	40	0	7
SI_	40	0	7	96	48	4
XTP	40	96	1
XTP	40	96	7
XTP	40	192	3
XTP	40	192	5
XTP	40	264	2
XTP	40	264	4
STR	40	336	0
SV_	40	336	0	96	48	3
STR	40	336	6
SV_	40	336	6	96	48	3
TAP	41	144	2
TAP	41	144	4
TAP	41	192	2
TAP	41	192	4
XTP	41	264	1
XTP	41	264	5
STR	41	336	6
SI_	41	336	6	96	48	2
TAP	42	48	0
STR	42	96	0
SI_	42	96	0	96	48	4
TAP	42	192	5
TAP	42	264	6
HLD	42	336	0	96
TAP	42	336	7
STR	43	48	3
SI_	43	48	3	96	48	7
STR	43	96	1
SI_	43	96	1	96	48	5
XTP	43	240	7
XTP	43	288	7
STR	44	0	0
SI_	44	0	0	96	48	3
STR	44	0	6
SI_	44	0	6	96	48	3
XTP	44	96	0
XTP	44	96	6
XTP	44	240	1
XTP	44	240	5
XTP	44	336	1
XTP	44	336	5
TAP	45	48	0
STR	45	96	0
SF_	45	96	0	96	48	4
XTP	45	288	3
XTP	45	288	5
STR	46	0	6
SCL	46	0	6	96	48	3
STR	46	96	2
SCL	46	96	2	96	48	7
STR	46	192	5
SXL	46	192	5	96	144	3
HLD	46	288	0	240
XTP	47	144	3
XTP	47	192	3
TAP	47	288	1
TAP	47	288	4
TAP	48	0	2
TAP	48	24	3
TAP	48	48	2
TAP	48	72	3
BRK	48	96	1
TAP	48	120	3
TAP	48	144	2
TAP	48	192	5
TAP	48	216	4
TAP	48	240	5
TAP	48	264	4
XTP	48	288	6
TAP	48	312	4
TAP	48	336	5
TAP	49	0	0
TAP	49	48	0
TAP	49	96	0
TAP	49	192	1
STR	49	192	7
SXR	49	192	7	96	96	7
TAP	49	288	3
STR	50	0	2
SXR	50	0	2	96	192	4
TAP	50	96	4
XTP	50	192	5
XTP	50	288	6
TAP	51	0	7
TAP	51	48	7
TAP	51	96	2
TAP	51	144	2
TAP	51	192	3
TAP	51	240	4
TAP	51	288	5
TAP	51	336	6
STR	52	0	1
SI_	52	0	1	96	48	4
STR	52	0	7
SI_	52	0	7	96	48	4
XTP	52	96	1
XTP	52	96	7
STR	52	240	3
SXL	52	240	3	96	144	3
SXR	52	240	3	96	144	3
TAP	52	240	5
XTP	53	192	1
XTP	53	192	5
STR	53	288	2
SI_	53	288	2	96	48	7
TAP	53	288	6
STR	54	0	5
SI_	54	0	5	96	48	2
STR	54	96	1
SI_	54	96	1	96	48	4
STR	54	192	7
SCL	54	192	7	96	192	0
TTP	54	288	0	C	1	M1
TAP	55	192	0
TAP	55	192	7
TAP	56	0	2
HLD	56	0	5	384
TTP	56	192	4	E	0	M1
HLD	57	0	3	384
TTP	57	192	4	E	0	M1
HLD	58	0	4	384
TTP	58	192	4	E	0	M1
HLD	59	0	2	384
TTP	59	192	4	E	0	M1
XHO	60	0	5	192
XHO	60	192	7	192
XHO	61	0	0	192
XHO	61	192	2	192
TTP	62	0	6	B	0	M1
TTP	62	0	6	E	0	M1
TTP	62	0	7	E	0	M1
TTP	62	96	1	B	0	M1
TTP	62	96	1	E	0	M1
TTP	62	96	2	E	0	M1
TAP	62	192	4
TAP	62	240	4
TAP	62	288	3
TAP	62	336	3
TAP	63	0	3
TAP	63	0	4
TAP	63	48	3
TAP	63	48	4
TAP	63	96	3
TAP	63	96	4
TAP	63	144	3
TAP	63	144	4
TAP	63	192	3
TAP	63	192	4
TAP	63	288	1
TAP	63	288	5
STR	64	0	0
SI_	64	0	0	96	48	3
STR	64	0	6
SI_	64	0	6	96	48	3
XTP	64	96	0
XTP	64	96	6
XTP	64	192	2
XTP	64	192	4
XTP	64	264	3
XTP	64	264	5
STR	64	336	1
SV_	64	336	1	96	48	4
STR	64	336	7
SV_	64	336	7	96	48	4
TAP	65	144	3
TAP	65	144	5
TAP	65	192	3
TAP	65	192	5
XTP	65	264	2
XTP	65	264	6
STR	65	336	1
SI_	65	336	1	96	48	5
TAP	66	48	7
STR	66	96	7
SI_	66	96	7	96	48	3
TAP	66	192	2
TAP	66	264	1
TAP	66	336	0
HLD	66	336	7	96
XTP	67	48	6
XTP	67	96	5
XTP	67	144	4
XTP	67	192	3
XTP	67	240	2
XTP	67	288	1
XTP	67	336	0
XST	68	0	1
SI_	68	0	1	96	48	4
XST	68	0	7
SI_	68	0	7	96	48	4
XTP	68	96	1
XTP	68	96	7
XTP	68	240	2
XTP	68	240	6
XTP	68	336	2
XTP	68	336	6
TAP	69	48	3
STR	69	96	3
SF_	69	96	3	96	48	7
XTP	69	288	0
XTP	69	288	6
STR	70	0	4
SI_	70	0	4	96	48	0
STR	70	0	5
SI_	70	0	5	96	48	7
STR	70	192	2
SI_	70	192	2	96	48	0
STR	70	192	3
SI_	70	192	3	96	48	7
TAP	71	0	4
TAP	71	0	5
TAP	71	96	7
TAP	71	144	7
TAP	71	192	1
TAP	71	240	1
TAP	71	288	2
TAP	71	288	6
TAP	72	0	5
TAP	72	24	4
TAP	72	48	5
TAP	72	72	4
BRK	72	96	6
TAP	72	120	4
TAP	72	144	5
TAP	72	192	2
TAP	72	216	3
TAP	72	240	2
TAP	72	264	3
XTP	72	288	1
TAP	72	312	3
TAP	72	336	2
TAP	73	0	7
TAP	73	48	7
TAP	73	96	7
STR	73	192	0
SI_	73	192	0	96	48	4
TAP	73	192	6
STR	73	288	7
SI_	73	288	7	96	48	3
STR	74	0	0
SI_	74	0	0	96	48	2
STR	74	96	6
SI_	74	96	6	96	48	4
STR	74	192	0
SI_	74	192	0	96	48	4
TAP	74	288	7
TAP	74	336	7
TAP	75	0	1
TAP	75	48	1
TAP	75	96	5
TAP	75	144	5
TAP	75	192	4
TAP	75	240	3
TAP	75	288	2
TAP	75	336	1
STR	76	0	0
SI_	76	0	0	96	48	3
STR	76	0	6
SI_	76	0	6	96	48	3
XTP	76	96	0
XTP	76	96	6
TAP	76	240	2
STR	76	240	4
SI_	76	240	4	96	48	7
STR	76	336	3
SI_	76	336	3	96	48	0
XTP	77	48	7
XTP	77	96	7
XTP	77	192	2
XTP	77	192	6
TAP	77	288	1
STR	77	288	5
SI_	77	288	5	96	48	0
STR	78	0	2
SI_	78	0	2	96	48	5
STR	78	96	6
SI_	78	96	6	96	48	3
STR	78	192	0
SCR	78	192	0	96	192	7
TTP	78	288	0	C	1	M1
XTP	79	192	0
XTP	79	192	7
TAP	80	0	3
TAP	80	0	5
TAP	80	48	3
TAP	80	48	5
TAP	80	192	2
TAP	80	192	4
TAP	80	240	2
TAP	80	240	4
TAP	81	48	1
TAP	81	48	6
TAP	81	144	3
TAP	81	144	4
STR	81	192	3
SCL	81	192	3	96	48	0
STR	81	192	4
SCR	81	192	4	96	48	7
XTP	82	0	1
BRK	82	96	0
BRK	82	96	6
TAP	82	192	4
TAP	82	240	5
TAP	82	288	0
TAP	82	288	6
TAP	83	0	3
TAP	83	48	2
TAP	83	96	1
TAP	83	96	7
TAP	83	192	6
TAP	83	240	5
TAP	83	288	2
TAP	83	288	4
XTP	84	0	6
BRK	84	96	1
BRK	84	96	7
TAP	84	192	3
TAP	84	240	2
TAP	84	288	1
TAP	84	288	7
TAP	85	0	4
TAP	85	48	5
TAP	85	96	0
TAP	85	96	6
TAP	85	192	1
TAP	85	240	2
TAP	85	288	3
TAP	85	288	5
XTP	86	0	1
BRK	86	96	0
BRK	86	96	6
TAP	86	192	4
TAP	86	240	5
TAP	86	288	0
TAP	86	288	6
TAP	87	0	3
TAP	87	48	2
TAP	87	96	1
TAP	87	96	7
TAP	87	192	6
TAP	87	240	5
TAP	87	288	2
TAP	87	288	4
STR	88	0	2
SI_	88	0	2	96	48	0
STR	88	0	3
SI_	88	0	3	96	48	7
STR	88	192	4
SI_	88	192	4	96	48	0
STR	88	192	5
SI_	88	192	5	96	48	7
TAP	89	0	3
TAP	89	0	4
TAP	89	96	1
TAP	89	96	6
TAP	89	144	1
TAP	89	144	6
STR	89	192	0
SI_	89	192	0	96	48	3
STR	89	192	7
SI_	89	192	7	96	48	4
BRK	89	288	0
BRK	89	288	7

T_REC_TAP	283
T_REC_BRK	13
T_REC_XTP	72
T_REC_HLD	76
T_REC_XHO	4
T_REC_STR	81
T_REC_BST	0
T_REC_XST	3
T_REC_TTP	15
T_REC_THO	0
T_REC_SLD	86
T_REC_ALL	633
T_NUM_TAP	454
T_NUM_BRK	13
T_NUM_HLD	80
T_NUM_SLD	86
T_NUM_ALL	633
T_JUDGE_TAP	467
T_JUDGE_HLD	168
T_JUDGE_SLD	86
T_JUDGE_ALL	721
TTM_EACHPAIRS	146
TTM_SCR_TAP	227000
TTM_SCR_BRK	33800
TTM_SCR_HLD	80000
TTM_SCR_SLD	129000
TTM_SCR_ALL	469800
TTM_SCR_S	454450
TTM_SCR_SS	468500
TTM_RAT_ACV	10027

